<?xml version="1.0" standalone="no"?>
<!DOCTYPE svg PUBLIC "-//W3C//DTD SVG 1.1//EN" "http://www.w3.org/Graphics/SVG/1.1/DTD/svg11.dtd" >
<svg xmlns="http://www.w3.org/2000/svg" xmlns:xlink="http://www.w3.org/1999/xlink" version="1.1">
<metadata>
Created by FontForge 20190801 at Wed Oct 18 00:00:00 2000
 By root
Copyright 2000 Agfa Monotype Corporation. All Rights Reserved.
</metadata>
<defs>
<font id="Univers" horiz-adv-x="1139" >
  <font-face 
    font-family="Univers 55"
    font-weight="400"
    font-stretch="normal"
    units-per-em="2048"
    panose-1="2 1 6 3 2 2 2 3 2 4"
    ascent="1638"
    descent="-410"
    x-height="1024"
    cap-height="1583"
    bbox="-352 -560 2048 1937"
    underline-thickness="102"
    underline-position="-256"
    unicode-range="U+0020-FB02"
  />
<missing-glyph horiz-adv-x="1022" 
d="M76 0v1109h870v-1109h-870zM332 256h358v597h-358v-597z" />
    <glyph glyph-name=".notdef" horiz-adv-x="1022" 
d="M76 0v1109h870v-1109h-870zM332 256h358v597h-358v-597z" />
    <glyph glyph-name=".null" horiz-adv-x="0" 
 />
    <glyph glyph-name="nonmarkingreturn" horiz-adv-x="569" 
 />
    <glyph glyph-name="space" unicode=" " horiz-adv-x="569" 
 />
    <glyph glyph-name="space" unicode="&#xa0;" horiz-adv-x="569" 
 />
    <glyph glyph-name="exclam" unicode="!" horiz-adv-x="797" 
d="M337 338l-32 1134v0h231v0l-32 -1134h-167zM312 0v204h217v-204h-217z" />
    <glyph glyph-name="numbersign" unicode="#" 
d="M143 0v0l75 408v0h-205v142h232v0l59 306v0h-207v142h234v0l79 426v0v0h165l-79 -426v0h251v0l79 426h165l-79 -426v0h206v-142h-233v0l-59 -306v0h208v-142h-235v0l-75 -408v0v0h-165l75 408v0h-251v0l-75 -408h-165zM410 550v0h251v0l59 306v0h-251v0z" />
    <glyph glyph-name="dollar" unicode="$" 
d="M56 393h214q0 -99 62 -166q63 -66 184 -66v486v0l-164 59q-166 59 -217 146q-51 88 -51 199q0 157 111 265t321 108v0v176h109v-171q442 -15 442 -341h-214q-7 83 -58 121q-50 39 -170 50v-428q266 -69 365 -170q99 -100 99 -256q0 -181 -126 -291q-125 -109 -338 -121
v-208h-109v208v0q-200 0 -330 97q-130 98 -130 303zM625 619v-458q120 0 185 65t65 155q0 74 -44 128q-43 54 -206 110zM516 1256q-233 -27 -233 -191q0 -142 233 -200v391z" />
    <glyph glyph-name="percent" unicode="%" horiz-adv-x="1821" 
d="M384 -82l906 1588h134l-903 -1588h-137zM1058 338q0 160 88 265q89 106 265 106q158 0 237 -98q80 -98 80 -259q0 -164 -85 -269q-84 -105 -250 -105q-168 0 -252 100q-83 101 -83 260zM1216 338q0 -237 180 -237q174 0 174 237q0 248 -174 248q-180 0 -180 -248z
M112 1098q0 160 88 265q89 106 265 106q158 0 237 -98q80 -98 80 -259q0 -164 -85 -269q-84 -105 -250 -105q-168 0 -252 100q-83 101 -83 260zM270 1098q0 -237 180 -237q174 0 174 237q0 248 -174 248q-180 0 -180 -248z" />
    <glyph glyph-name="ampersand" unicode="&#x26;" horiz-adv-x="1593" 
d="M410 858v0q-170 156 -170 333q0 158 110 242q110 85 293 85v0q190 0 290 -82q101 -81 101 -209q0 -124 -72 -216q-72 -91 -215 -189v0l366 -354v0q54 83 82 199q28 117 28 284h198q0 -204 -41 -344q-41 -139 -140 -268v0l357 -339h-288l-195 184v0q-228 -215 -519 -215
q-216 0 -356 115t-140 309q0 99 51 207q51 109 260 258zM544 731v0q-227 -166 -227 -331q0 -120 84 -189q84 -68 226 -68q192 0 347 160v0zM615 955v0q201 136 201 263q0 58 -47 97q-47 40 -121 40q-91 0 -141 -47q-49 -47 -49 -105q0 -100 157 -248z" />
    <glyph glyph-name="quotesingle" unicode="'" horiz-adv-x="569" 
d="M208 1411h170l-32 -496h-106z" />
    <glyph glyph-name="parenright" unicode=")" horiz-adv-x="682" 
d="M291 1531q127 -322 186 -511q59 -188 59 -383q0 -238 -100 -514q-99 -275 -134 -367h-135q91 297 136 484q45 188 45 390q0 179 -46 374q-45 196 -146 527h135z" />
    <glyph glyph-name="asterisk" unicode="*" 
d="M160 1129l352 -32l-213 291l131 77l146 -324v0l139 324l138 -77l-213 -291l352 32v-141l-352 32l213 -287l-131 -81l-144 324v0l-141 -324l-138 77l213 291l-352 -32v141z" />
    <glyph glyph-name="plus" unicode="+" horiz-adv-x="1196" 
d="M80 598h448v448h165v-448h448v-160h-448v-448h-165v448h-448v160z" />
    <glyph glyph-name="comma" unicode="," horiz-adv-x="569" 
d="M96 -251l131 496h238l-231 -496h-138z" />
    <glyph glyph-name="glyph14" unicode="-" horiz-adv-x="682" 
d="M80 615h512v-157h-512v157z" />
    <glyph glyph-name="period" unicode="." horiz-adv-x="569" 
d="M167 246h227v-246h-227v246z" />
    <glyph glyph-name="slash" unicode="/" horiz-adv-x="569" 
d="M-18 -31l473 1488h135l-473 -1488h-135z" />
    <glyph glyph-name="zero" unicode="0" 
d="M90 700q0 754 487 754q217 0 340 -182q124 -181 124 -548q0 -380 -127 -567q-126 -187 -352 -187q-233 0 -353 188q-119 188 -119 542zM289 694q0 -556 270 -556q283 0 283 570q0 578 -272 578q-281 0 -281 -592z" />
    <glyph glyph-name="one" unicode="1" 
d="M224 1197q217 109 352 227h183v-1424h-199v1197q-149 -121 -336 -205v205z" />
    <glyph glyph-name="two" unicode="2" 
d="M109 187l370 364q327 320 327 499q0 116 -64 176t-165 60q-232 0 -232 -248v0h-214v0q0 182 117 299q118 117 323 117q188 0 311 -107q123 -106 123 -309q0 -164 -148 -339t-288 -311l-227 -220v0h666v-168h-899v187z" />
    <glyph glyph-name="three" unicode="3" 
d="M78 370h214v0q0 -232 268 -232q129 0 207 68t78 183q0 264 -339 264h-43q-25 0 -33 -3v174h21q17 0 28 -3q163 0 253 58q91 59 91 187q0 110 -65 165q-64 55 -191 55q-102 0 -181 -55q-79 -54 -87 -161h-199q0 168 123 276t331 108q219 0 343 -110q125 -109 125 -275
q0 -126 -76 -216t-207 -118q135 -19 220 -110t85 -237q0 -178 -139 -298q-138 -120 -340 -120q-246 0 -367 110q-120 111 -120 290v0z" />
    <glyph glyph-name="four" unicode="4" 
d="M56 551l612 873h220v-944h208v-168h-208v-312h-199v312h-633v239zM214 480v0h475v718v0z" />
    <glyph glyph-name="five" unicode="5" 
d="M115 338h214v0q0 -80 65 -140t179 -60q117 0 193 84q76 85 76 239q0 146 -74 222q-73 76 -191 76q-109 0 -175 -55t-82 -129h-186l37 849h795v-168h-618v0l-28 -460q135 131 299 131q196 0 309 -131q113 -130 113 -336q0 -234 -145 -362q-144 -128 -351 -128
q-177 0 -300 96q-122 96 -130 272v0z" />
    <glyph glyph-name="six" unicode="6" 
d="M305 759q124 179 326 179q196 0 311 -128t115 -333q0 -228 -138 -368q-138 -139 -338 -139q-242 0 -359 174q-116 175 -116 504q0 390 133 598t384 208q181 0 298 -94q117 -93 117 -274h-214q0 105 -60 159q-59 54 -151 54q-165 0 -232 -146t-76 -394zM321 460
q0 -141 76 -232q76 -90 190 -90q116 0 193 86q78 86 78 244q0 153 -70 234t-188 81q-121 0 -200 -86q-79 -85 -79 -237z" />
    <glyph glyph-name="seven" unicode="7" 
d="M247 0l537 1256v0h-720v168h928v-172l-512 -1252h-233z" />
    <glyph glyph-name="eight" unicode="8" 
d="M393 751q-132 33 -209 115q-77 83 -77 201q0 157 114 272q115 115 342 115q209 0 336 -103t127 -278q0 -122 -78 -208t-211 -112q159 -41 232 -130q73 -88 73 -231q0 -182 -130 -302t-342 -120q-234 0 -365 115q-130 116 -130 291q0 288 318 375zM274 403q0 -104 75 -185
q75 -80 212 -80q133 0 207 70q75 71 75 199q0 118 -78 189q-77 72 -198 72q-137 0 -215 -78q-78 -77 -78 -187zM306 1068q0 -106 74 -167q74 -60 184 -60q109 0 186 60q77 61 77 165q0 110 -73 171q-72 62 -185 62q-112 0 -188 -63q-75 -62 -75 -168z" />
    <glyph glyph-name="nine" unicode="9" 
d="M96 338h214q0 -200 229 -200q303 0 303 491q0 -491 0 97q-109 -179 -317 -179q-198 0 -317 124q-118 125 -118 326q0 207 122 332q123 125 331 125q243 0 370 -170q128 -170 128 -549q0 -413 -135 -589q-134 -176 -382 -176q-198 0 -313 94q-115 95 -115 274zM289 996
q0 -145 77 -220q78 -74 193 -74q106 0 182 74q76 75 76 222q0 138 -78 219q-78 82 -194 82q-114 0 -185 -83t-71 -220z" />
    <glyph glyph-name="equal" unicode="=" horiz-adv-x="1196" 
d="M80 390h1040v-160h-1040v160zM80 806h1040v-160h-1040v160z" />
    <glyph glyph-name="greater" unicode="&#x3e;" horiz-adv-x="1196" 
d="M75 1014l1040 -416v-167l-1040 -416v177l829 322v0l-829 323v177z" />
    <glyph glyph-name="question" unicode="?" horiz-adv-x="1024" 
d="M348 204h209v-204h-209v204zM141 1461q129 42 288 42q243 0 361 -105q119 -104 119 -261q0 -104 -44 -175t-171 -203l-122 -126q-36 -40 -36 -85v-216h-170v232q0 74 61 144l97 104q88 98 130 162q42 65 42 142q0 214 -269 214q-155 0 -286 -58v189z" />
    <glyph glyph-name="A" unicode="A" horiz-adv-x="1479" 
d="M19 0l608 1472h218l608 -1472h-224l-163 384v0h-681v0l-155 -384h-211zM453 558v0h545v0l-272 713v0zM747 1583v0v0zM1403 0v0v0zM0 1503v0v0z" />
    <glyph glyph-name="B" unicode="B" horiz-adv-x="1366" 
d="M195 0v1472h546v0h41q195 0 306 -101q112 -100 112 -271q0 -254 -250 -333q295 -80 295 -369q0 -185 -123 -292q-122 -106 -373 -106h-554zM400 174h328q140 0 219 64q80 64 80 187q0 118 -79 184q-78 66 -200 66h-348v-501zM400 849h300q282 0 282 228q0 114 -70 167
q-69 54 -198 54h-314v-449z" />
    <glyph glyph-name="C" unicode="C" horiz-adv-x="1366" 
d="M1072 385h218q-11 -165 -152 -291q-140 -125 -400 -125q-294 0 -460 196t-166 559q0 343 164 561q165 218 485 218q243 0 386 -123t143 -293v0h-218v0q-36 242 -322 242q-209 0 -315 -162q-105 -161 -105 -450q0 -574 426 -574q276 0 316 242zM765 1583v0v0zM756 0v0v0z
" />
    <glyph glyph-name="D" unicode="D" horiz-adv-x="1479" 
d="M179 0v1472h507q361 0 533 -206q173 -206 173 -547q0 -329 -160 -524q-159 -195 -555 -195h-498zM384 174h253q295 0 416 144q121 145 121 405q0 280 -126 427q-125 148 -392 148h-272v-1124zM677 1583v0v0zM0 1503v0v0z" />
    <glyph glyph-name="E" unicode="E" horiz-adv-x="1251" 
d="M157 0v1472h925v-174h-720v-457h685v-174h-685v-493h736v-174h-941zM666 1583v0v0zM1024 0v0v0zM0 1503v0v0z" />
    <glyph glyph-name="F" unicode="F" 
d="M198 0v1472h877v-174h-672v-457h634v-174h-634v-667h-205z" />
    <glyph glyph-name="G" unicode="G" horiz-adv-x="1593" 
d="M868 608v174h544v-721q-254 -92 -508 -92q-395 0 -581 212q-185 212 -185 537q0 315 180 550t547 235q267 0 407 -122q140 -121 140 -278h-218q-15 104 -105 165q-89 61 -229 61q-254 0 -379 -165t-125 -442q0 -252 122 -416q123 -163 410 -163q158 0 319 45v420h-339z
M825 1583v0v0zM865 0v0v0z" />
    <glyph glyph-name="H" unicode="H" horiz-adv-x="1479" 
d="M179 1472h205v-631h707v631h205v-1472h-205v667h-707v-667h-205v1472z" />
    <glyph glyph-name="I" unicode="I" horiz-adv-x="569" 
d="M179 1472h205v-1472h-205v1472zM284 1583v0v0zM326 0v0v0zM0 1503v0v0z" />
    <glyph glyph-name="J" unicode="J" 
d="M42 393h218q0 -128 61 -185t165 -57q96 0 168 59q73 60 73 209v1053h205v-1075q0 -196 -130 -308t-332 -112q-199 0 -314 109q-114 110 -114 307z" />
    <glyph glyph-name="K" unicode="K" horiz-adv-x="1366" 
d="M394 828v0l614 644h282l-659 -661l729 -811h-288l-678 782v0v-782h-205v1472h205v-644zM742 0v0v0z" />
    <glyph glyph-name="L" unicode="L" 
d="M192 1472h205v-1298h688v-174h-893v1472zM304 1583v0v0zM663 0v0v0zM0 1503v0v0z" />
    <glyph glyph-name="M" unicode="M" horiz-adv-x="1933" 
d="M186 1472h362l425 -1213v0l429 1213h339v-1472h-198v1323v0l-490 -1323h-195l-474 1323v0v-1323h-198v1472z" />
    <glyph glyph-name="N" unicode="N" horiz-adv-x="1593" 
d="M195 1472h285l723 -1219v0v1219h189v-1472h-262l-746 1242v0v-1242h-189v1472zM826 1583v0v0zM812 0v0v0zM0 1503v0v0z" />
    <glyph glyph-name="O" unicode="O" horiz-adv-x="1593" 
d="M122 736q0 356 182 561q183 206 506 206q317 0 491 -200q175 -199 175 -555q0 -366 -175 -573q-174 -206 -507 -206q-342 0 -507 200q-165 201 -165 567zM340 736q0 -285 116 -439q117 -154 336 -154q466 0 466 607q0 579 -448 579q-470 0 -470 -593zM825 1583v0v0z" />
    <glyph glyph-name="P" unicode="P" horiz-adv-x="1251" 
d="M179 1472h514v0h21q245 0 357 -113q113 -112 113 -291q0 -194 -126 -305q-125 -111 -427 -111h-247v-652h-205v1472zM384 1298v-472h257q325 0 325 247q0 225 -271 225h-311z" />
    <glyph glyph-name="Q" unicode="Q" horiz-adv-x="1593" 
d="M1171 135v0q145 28 257 28h124v-163h-292q-118 0 -300 -16q-182 -15 -203 -15q-285 0 -462 199t-177 568q0 359 183 563q184 204 504 204q302 0 468 -200q167 -200 167 -547q0 -415 -269 -621zM336 731q0 -265 116 -427q117 -161 324 -161q212 0 329 156t117 423
q0 289 -115 448t-331 159q-212 0 -326 -165t-114 -433z" />
    <glyph glyph-name="R" unicode="R" horiz-adv-x="1366" 
d="M176 0v1472h547q243 0 366 -100q124 -100 124 -267q0 -135 -80 -233q-79 -97 -202 -123q105 -24 156 -83q51 -58 67 -172q14 -105 34 -244t63 -250h-218q-39 127 -70 411q-16 151 -82 203q-66 53 -227 53h-273v-667h-205zM381 841h324q182 0 236 62q54 63 54 158
q0 122 -69 179q-69 58 -207 58h-338v-457zM699 1583v0v0zM715 0v0v0zM0 1503v0v0z" />
    <glyph glyph-name="S" unicode="S" horiz-adv-x="1366" 
d="M112 433h218v0q0 -290 350 -290q168 0 251 78q83 79 83 182q0 94 -59 145q-59 52 -211 92l-260 63q-190 50 -273 136t-83 239q0 195 163 310q164 115 407 115q237 0 369 -107q133 -106 133 -293v0h-218v0q-15 226 -313 226q-153 0 -238 -64t-85 -170q0 -105 67 -148
t206 -75l263 -68q176 -44 263 -138t87 -240q0 -208 -154 -333q-153 -124 -419 -124q-261 0 -404 113t-143 351v0zM673 1583v0v0zM648 0v0v0z" />
    <glyph glyph-name="T" unicode="T" horiz-adv-x="1251" 
d="M48 1472h1197v-174h-496v-1298h-205v1298h-496v174zM651 1583v0v0zM651 0v0v0zM0 1503v0v0z" />
    <glyph glyph-name="U" unicode="U" horiz-adv-x="1593" 
d="M192 1472h205v-929q0 -213 111 -307q112 -93 297 -93q189 0 292 95t103 326v908h205v-922v0q0 -271 -162 -426t-430 -155q-284 0 -453 142q-168 143 -168 421v36v904zM789 1583v0v0zM969 0v0v0zM0 1503v0v0z" />
    <glyph glyph-name="V" unicode="V" horiz-adv-x="1366" 
d="M678 219v0l426 1253h208l-528 -1472h-224l-528 1472h227z" />
    <glyph glyph-name="W" unicode="W" horiz-adv-x="2048" 
d="M16 1472h218l330 -1213v0l348 1213h256l336 -1207v0l326 1207h202l-432 -1472h-224l-349 1254v0l-355 -1254h-224z" />
    <glyph glyph-name="X" unicode="X" horiz-adv-x="1479" 
d="M38 0l578 771v0l-517 701h262l402 -569v0l405 569h246l-530 -701v0l556 -771h-256l-445 633v0l-455 -633h-246z" />
    <glyph glyph-name="Y" unicode="Y" horiz-adv-x="1366" 
d="M16 1472h253l435 -724v0l439 724h230l-576 -897v-575h-205v575zM689 1583v0v0zM0 1503v0v0z" />
    <glyph glyph-name="Z" unicode="Z" horiz-adv-x="1251" 
d="M70 0v201l861 1097v0h-839v174h1082v-201l-867 -1097v0h880v-174h-1117zM625 1583v0v0zM0 1503v0v0z" />
    <glyph glyph-name="backslash" unicode="\" horiz-adv-x="569" 
d="M455 -32l-473 1489h135l473 -1489h-135z" />
    <glyph glyph-name="bracketright" unicode="]" horiz-adv-x="682" 
d="M479 -254h-355v108h192v1569h-192v108h355v-1785z" />
    <glyph glyph-name="asciicircum" unicode="^" horiz-adv-x="1196" 
d="M343 552h-176l352 865h157l352 -865h-176l-259 652v0z" />
    <glyph glyph-name="underscore" unicode="_" horiz-adv-x="1024" 
d="M0 -254v103h1024v-103h-1024z" />
    <glyph glyph-name="grave" unicode="`" horiz-adv-x="569" 
d="M276 1216l-273 288h233l167 -288h-127zM300 1216v0v0z" />
    <glyph glyph-name="a" unicode="a" 
d="M791 627v0q0 170 -30 208q-57 77 -190 77q-195 0 -207 -165h-193q19 304 405 304q179 0 291 -71q113 -70 113 -202v-544q0 -161 16 -226h-183q-19 94 -19 157q-101 -192 -321 -192q-158 0 -261 80t-103 220q0 165 133 263t408 98q33 0 141 -7zM791 489q-68 6 -125 6
q-358 0 -358 -198q0 -75 56 -123q56 -47 155 -47q136 0 204 78t68 284v0zM587 1211v0v0zM941 0v0v0z" />
    <glyph glyph-name="b" unicode="b" horiz-adv-x="1251" 
d="M168 0q9 78 9 167v1305h199v-597q15 29 107 102q93 74 233 74q211 0 327 -135q117 -135 117 -387q0 -268 -127 -412q-126 -144 -342 -144q-97 0 -187 44q-89 44 -134 132l-9 -149h-193zM376 503q0 -391 295 -391q131 0 210 104q80 105 80 302q0 178 -75 286
q-74 108 -213 108q-142 0 -220 -108q-77 -107 -77 -301z" />
    <glyph glyph-name="c" unicode="c" horiz-adv-x="1024" 
d="M774 341h199q0 -140 -113 -254t-306 -114q-217 0 -339 133q-122 134 -122 389q0 275 132 415q132 141 331 141q196 0 299 -101q104 -100 109 -251v0h-199v0q-15 213 -203 213q-270 0 -270 -391q0 -409 262 -409q90 0 155 60q65 61 65 169zM576 1211v0v0zM556 0v0v0z" />
    <glyph glyph-name="d" unicode="d" horiz-adv-x="1251" 
d="M893 875v597h199v-1305q0 -73 9 -167h-193l-9 156q-37 -83 -135 -133q-97 -50 -211 -50q-198 0 -321 135q-123 136 -123 379q0 262 126 413q127 151 340 151q232 0 318 -176zM893 518q0 192 -81 293t-221 101q-132 0 -208 -101q-75 -101 -75 -305q0 -394 279 -394
q306 0 306 406z" />
    <glyph glyph-name="e" unicode="e" 
d="M305 474v0q0 -362 291 -362q92 0 160 54t77 159h199q-7 -152 -127 -252q-119 -100 -318 -100q-226 0 -354 130q-127 130 -127 396q0 271 124 411q124 141 354 141q223 0 340 -122q117 -121 117 -351v-104h-736zM314 613h528v0q0 299 -252 299q-126 0 -201 -83t-75 -216z
M584 1211v0v0zM731 0v0v0z" />
    <glyph glyph-name="f" unicode="f" horiz-adv-x="682" 
d="M48 1024h192v161q0 164 77 237q78 73 241 73q87 0 153 -14v-153q-11 2 -50 3q-38 1 -56 1q-97 0 -132 -30q-34 -29 -34 -100v-178h240v-139h-240v-885h-199v885h-192v139z" />
    <glyph glyph-name="g" unicode="g" horiz-adv-x="1251" 
d="M159 -68h205q8 -197 237 -197q174 0 230 114q43 87 43 343v0q-78 -176 -324 -176q-229 0 -337 140q-107 140 -107 365q0 256 128 393t332 137q212 0 320 -160l4 133h186q-2 -17 -2 -76q0 -58 -1 -91v-695q0 -215 -22 -305q-21 -89 -84 -149q-110 -112 -369 -112
q-230 0 -333 76q-103 77 -106 260zM874 554q0 188 -85 273t-211 85q-273 0 -273 -384q0 -180 71 -277q72 -96 202 -96q151 0 223 100q73 101 73 299v0zM627 1211v0v0z" />
    <glyph glyph-name="h" unicode="h" horiz-adv-x="1251" 
d="M180 1472h199v-597q44 83 134 129q91 47 194 47q153 0 256 -84q104 -84 104 -265v-702h-199v663q0 102 -53 171q-52 69 -170 69q-127 0 -197 -91q-69 -91 -69 -241v-571h-199v1472z" />
    <glyph glyph-name="i" unicode="i" horiz-adv-x="569" 
d="M183 1024h199v-1024h-199v1024zM161 1475h243v-211h-243v211zM312 0v0v0z" />
    <glyph glyph-name="j" unicode="j" horiz-adv-x="569" 
d="M186 -75v1099h199v-1124q0 -152 -64 -226t-212 -74q-28 0 -63 4q-35 5 -49 5v132q10 -2 20 -2h23q82 0 114 35q32 36 32 151zM164 1475h243v-211h-243v211z" />
    <glyph glyph-name="k" unicode="k" horiz-adv-x="1024" 
d="M364 604v0l388 420h252l-438 -436l466 -588h-252l-416 552v0v-552h-199v1472h199v-868zM571 0v0v0z" />
    <glyph glyph-name="l" unicode="l" horiz-adv-x="569" 
d="M183 0v1472h199v-1472h-199zM289 1632v0v0zM289 0v0v0z" />
    <glyph glyph-name="m" unicode="m" horiz-adv-x="1933" 
d="M379 0h-199v896q0 10 -1 58q-1 49 -2 70h196l3 -149q91 176 329 176t328 -192q69 105 149 148q80 44 212 44q153 0 257 -91t104 -262v-698h-199v656q0 136 -65 191q-64 56 -157 56q-134 0 -201 -80q-66 -79 -66 -240v-583h-199v656q0 137 -64 192q-63 55 -158 55
q-116 0 -192 -80q-75 -79 -75 -216v-607z" />
    <glyph glyph-name="n" unicode="n" horiz-adv-x="1251" 
d="M385 0h-199v896q0 57 -3 128h193l9 -165q95 192 327 192q135 0 238 -69q139 -91 139 -280v-702h-199v663q0 115 -54 167q-72 73 -181 73q-113 0 -188 -76q-82 -83 -82 -213v-614zM669 1211v0v0zM659 0v0v0z" />
    <glyph glyph-name="o" unicode="o" horiz-adv-x="1251" 
d="M106 508q0 252 139 397q139 146 385 146q235 0 371 -141q136 -140 136 -390t-142 -399q-141 -148 -382 -148q-230 0 -369 142q-138 142 -138 393zM305 512q0 -190 86 -295q87 -105 233 -105q132 0 223 103q91 104 91 316q0 183 -85 282t-219 99q-141 0 -235 -100
t-94 -300zM630 1211v0v0z" />
    <glyph glyph-name="p" unicode="p" horiz-adv-x="1251" 
d="M368 859q116 192 351 192q195 0 316 -136q122 -136 122 -395q0 -253 -129 -400q-128 -147 -340 -147q-98 0 -187 42q-89 43 -128 118v-533h-199v1252q-2 34 -2 94q0 61 -1 78h193zM373 487v14q0 -389 283 -389q140 0 221 107t81 318q0 375 -281 375q-304 0 -304 -425z
" />
    <glyph glyph-name="q" unicode="q" horiz-adv-x="1251" 
d="M886 -400v527q-34 -62 -121 -108t-194 -46q-213 0 -341 147t-128 400q0 240 114 385q114 146 325 146q235 0 353 -192l7 175h193q-9 -101 -9 -174v-1260h-199zM886 491q0 421 -302 421q-283 0 -283 -375q0 -211 80 -318t222 -107q283 0 283 379v0z" />
    <glyph glyph-name="r" unicode="r" horiz-adv-x="797" 
d="M756 1051v-185q-31 4 -82 4q-286 0 -286 -313v-557h-199v896q0 57 -3 128h193l4 -181q60 208 322 208h51zM490 1211v0v0zM310 0v0v0z" />
    <glyph glyph-name="s" unicode="s" horiz-adv-x="1024" 
d="M90 309h199v0q0 -197 230 -197q217 0 217 165q0 66 -54 96q-54 31 -229 67q-188 40 -265 109q-76 69 -76 188q0 141 110 227q110 87 284 87q194 0 297 -72q104 -72 104 -232v0h-199v0q0 165 -197 165q-200 0 -200 -147q0 -96 160 -134l113 -25q214 -50 282 -122
q69 -72 69 -180q0 -150 -111 -241q-111 -90 -335 -90q-184 0 -292 83q-107 83 -107 253v0zM527 1211v0v0zM495 0v0v0z" />
    <glyph glyph-name="t" unicode="t" horiz-adv-x="682" 
d="M22 885v139h183v211l199 61v-272h224v-139h-224v-635q0 -125 137 -125q62 0 93 11v-148q-42 -15 -158 -15q-151 0 -211 49t-60 168v695h-183zM363 0v0v0z" />
    <glyph glyph-name="u" unicode="u" horiz-adv-x="1251" 
d="M158 1024h199v-653q0 -144 54 -197t159 -53q130 0 211 74q81 75 81 208v621h199v-896q0 -57 3 -128h-196l-9 165q-95 -192 -326 -192q-176 0 -276 90q-99 91 -99 267v694zM615 1211v0v0zM1011 0v0v0zM0 1051v0v0z" />
    <glyph glyph-name="v" unicode="v" 
d="M595 212v0l318 812h214l-448 -1024h-199l-448 1024h214z" />
    <glyph glyph-name="w" unicode="w" horiz-adv-x="1706" 
d="M25 1024h214l256 -804v0l266 804h255l225 -812v0l245 812h202l-352 -1024h-224l-233 836v0l-278 -836h-224z" />
    <glyph glyph-name="x" unicode="x" 
d="M25 0l405 536v0l-383 488h252l272 -380v0l283 380h227l-398 -496v0l398 -528h-255l-286 408v0l-288 -408h-227z" />
    <glyph glyph-name="y" unicode="y" 
d="M25 1024h214l329 -791v0l315 791h214l-443 -1000l-157 -406h-199l155 390v0zM565 1211v0v0zM0 1051v0v0z" />
    <glyph glyph-name="z" unicode="z" horiz-adv-x="909" 
d="M62 0v196l548 689v0h-520v139h740v-164l-566 -721v0h566v-139h-768zM466 1211v0v0zM0 1051v0v0z" />
    <glyph glyph-name="bar" unicode="|" horiz-adv-x="532" 
d="M176 1536h170v-2048h-170v2048z" />
    <glyph glyph-name="asciitilde" unicode="~" horiz-adv-x="1196" 
d="M55 346q9 136 80 227q72 91 197 91q78 0 285 -73q207 -72 261 -72q63 0 102 41q39 42 48 104h115q-17 -134 -87 -218q-69 -84 -187 -84q-90 0 -284 72q-193 73 -273 73q-60 0 -97 -49q-37 -48 -45 -112h-115z" />
    <glyph glyph-name="cent" unicode="&#xa2;" 
d="M388 -1v0q-279 103 -279 502q0 264 125 412t337 148q58 0 109 -11v0l70 251v0h96l-76 -278v0q203 -88 210 -314v0h-199q-7 96 -57 147v0l-205 -735v0q24 -7 51 -7q90 0 155 59q65 60 65 165h199q0 -146 -114 -257t-308 -111q-47 0 -90 7v0l-76 -279v0h-99zM432 155v0
l208 753v0q-28 9 -61 9q-271 0 -271 -392q0 -281 124 -370z" />
    <glyph glyph-name="sterling" unicode="&#xa3;" 
d="M65 851h152v57v38q0 287 123 408q124 122 327 122q199 0 318 -88t119 -248h-202q0 92 -64 148q-63 57 -156 57q-127 0 -197 -76q-69 -75 -69 -234v-49v-135h289v-139h-289v-573h654v-139h-990v139h137v573h-152v139z" />
    <glyph glyph-name="yen" unicode="&#xa5;" 
d="M464 0v342h-368v126h368v112h-368v126h306v0l-402 777h255l327 -730v0l327 730h233l-397 -777v0h301v-126h-368v-112h368v-126h-368v-342h-214z" />
    <glyph glyph-name="brokenbar" unicode="&#xa6;" horiz-adv-x="532" 
d="M346 -352h-170v720h170v-720zM176 1392h170v-720h-170v720z" />
    <glyph glyph-name="section" unicode="&#xa7;" 
d="M227 8v177q110 -70 272 -70q86 0 142 42t56 114q0 56 -41 89q-40 34 -132 66l-135 42q-194 62 -194 231q0 193 221 266q-189 52 -189 232q0 138 99 211q99 74 267 74q127 0 238 -35v-157q-121 54 -217 54q-185 0 -185 -133q0 -91 93 -124l159 -54q95 -32 147 -92
q53 -59 53 -150q0 -204 -208 -260q226 -70 226 -261q0 -137 -112 -223q-111 -86 -316 -86q-140 0 -244 47zM533 918q-164 -54 -164 -179q0 -114 170 -160q168 57 168 179q0 113 -174 160z" />
    <glyph glyph-name="dieresis" unicode="&#xa8;" horiz-adv-x="569" 
d="M0 1473h189v-209h-189v209zM381 1473h189v-209h-189v209zM289 1216v0v0z" />
    <glyph glyph-name="ordfeminine" unicode="&#xaa;" horiz-adv-x="684" 
d="M87 1352q12 176 263 176q122 0 190 -45q69 -44 69 -122v-334q0 -100 9 -138h-115q-13 55 -13 92q-33 -58 -88 -86q-55 -27 -123 -27q-100 0 -166 49t-66 133q0 101 85 160t261 59q23 0 56 -2q34 -1 39 -3v0q0 105 -18 130q-38 47 -119 47q-120 0 -127 -89h-137zM488 1177
q-45 5 -81 5q-230 0 -230 -121q0 -106 137 -106q82 0 128 46q46 47 46 176z" />
    <glyph glyph-name="degree" unicode="&#xb0;" horiz-adv-x="819" 
d="M96 1134q0 135 90 227q91 93 230 93q133 0 224 -94q92 -94 92 -226q0 -130 -92 -223q-91 -92 -224 -92t-227 91q-93 91 -93 224zM236 1138q0 -76 51 -128q52 -52 128 -52q73 0 125 52t52 128q0 73 -52 125t-125 52q-76 0 -128 -52q-51 -52 -51 -125z" />
    <glyph glyph-name="plusminus" unicode="&#xb1;" horiz-adv-x="1196" 
d="M80 141h1061v-160h-1061v160zM80 717h448v336h165v-336h448v-160h-448v-336h-165v336h-448v160z" />
    <glyph glyph-name="twosuperior" unicode="&#xb2;" horiz-adv-x="682" 
d="M48 689l234 221q207 196 207 303q0 69 -33 106t-111 37q-148 0 -148 -142v0h-135v0q0 106 75 173q76 67 206 67q129 0 205 -68q76 -67 76 -185q0 -93 -95 -200q-94 -107 -186 -192l-146 -135v0h429v-98h-578v113z" />
    <glyph glyph-name="threesuperior" unicode="&#xb3;" horiz-adv-x="682" 
d="M22 789h135v0q0 -142 171 -142q77 0 129 41t52 117q0 163 -214 163h-49v98h30q101 0 160 35q59 36 59 117q0 71 -41 104q-40 34 -117 34q-154 0 -166 -142h-133q0 105 79 172q79 68 210 68q144 0 223 -66q80 -66 80 -170q0 -75 -50 -130q-49 -55 -135 -71q87 -13 143 -69
q56 -55 56 -141q0 -109 -90 -184q-89 -74 -219 -74q-156 0 -235 66q-78 67 -78 174v0z" />
    <glyph glyph-name="acute" unicode="&#xb4;" horiz-adv-x="569" 
d="M160 1216l172 288h212l-251 -288h-133zM277 1216v0v0z" />
    <glyph glyph-name="cedilla" unicode="&#xb8;" horiz-adv-x="569" 
d="M48 -391l41 73q52 -24 141 -24q110 0 110 86q0 82 -104 82q-51 0 -76 -20l-32 34l130 176h85l-91 -122q41 10 83 10q72 0 116 -41q45 -40 45 -106q0 -77 -64 -132q-63 -55 -192 -55q-114 0 -192 39zM293 0v0v0z" />
    <glyph glyph-name="onesuperior" unicode="&#xb9;" horiz-adv-x="682" 
d="M128 1307q132 64 216 133h119v-864h-127v731q-94 -72 -208 -123v123z" />
    <glyph glyph-name="ordmasculine" unicode="&#xba;" horiz-adv-x="752" 
d="M32 1195q0 143 86 238t256 95q163 0 247 -91q85 -90 85 -234q0 -155 -93 -245q-92 -90 -249 -90q-148 0 -240 85q-92 86 -92 242zM162 1196q0 -117 60 -179t149 -62q94 0 149 66q56 66 56 186q0 116 -53 175q-52 59 -144 59q-97 0 -157 -64q-60 -63 -60 -181z" />
    <glyph glyph-name="guillemotright" unicode="&#xbb;" 
d="M544 501l-221 -400h-163l192 400l-192 400h163zM944 501l-221 -400h-163l192 400l-192 400h163z" />
    <glyph glyph-name="AE" unicode="&#xc6;" horiz-adv-x="2048" 
d="M3 0l864 1472v0h1066v-174h-765v0l78 -457v0h658v-174h-625v0l84 -493v0h592v-174h-768l-70 407v0h-658v0l-232 -407h-224zM563 581v0h524v0l-118 736v0z" />
    <glyph glyph-name="Eth" unicode="&#xd0;" horiz-adv-x="1479" 
d="M179 877v595h507q361 0 533 -206q173 -206 173 -547q0 -315 -158 -517t-557 -202h-498v752h-144v125h144zM384 877h400v-125h-400v-578h253q291 0 414 152t123 397q0 265 -120 417q-119 153 -374 158h-24h-272v-421z" />
    <glyph glyph-name="multiply" unicode="&#xd7;" horiz-adv-x="1196" 
d="M213 15l-117 117l379 379v0l-379 379l117 117l379 -379v0l379 379l117 -117l-379 -379v0l379 -379l-117 -117l-379 379v0z" />
    <glyph glyph-name="Oslash" unicode="&#xd8;" horiz-adv-x="1593" 
d="M1174 1416v0l136 207h128l-179 -275v0q217 -199 217 -598q0 -367 -175 -574t-508 -207q-223 0 -372 89v0l-152 -233h-128l192 297v0q-211 193 -211 611q0 357 183 563q184 207 508 207q210 0 361 -87zM1072 1259v0q-102 70 -257 70q-475 0 -475 -594q0 -283 111 -433v0z
M1148 1178v0l-619 -955v0q104 -80 263 -80q466 0 466 609q0 281 -110 426z" />
    <glyph glyph-name="Thorn" unicode="&#xde;" horiz-adv-x="1251" 
d="M384 1227h309v0h55q211 0 323 -115q113 -114 113 -289q0 -174 -123 -295q-122 -121 -430 -121h-247v-407h-205v1472h205v-245zM384 1053v-472h257q325 0 325 247q0 225 -271 225h-311z" />
    <glyph glyph-name="germandbls" unicode="&#xdf;" horiz-adv-x="1366" 
d="M183 0v1092q0 403 455 403q210 0 329 -79t119 -224q0 -84 -34 -132t-110 -105q-105 -79 -105 -139q0 -52 68 -99l162 -109q99 -65 139 -127q40 -61 40 -152q0 -169 -120 -263q-119 -93 -292 -93q-331 0 -331 313h189q0 -174 168 -174q86 0 136 51q51 52 51 135
q0 113 -133 197l-149 94q-127 83 -127 200q0 119 123 214q87 66 106 99q20 33 20 73q0 94 -74 141q-73 48 -171 48q-144 0 -202 -74q-58 -73 -58 -224v-1066h-199z" />
    <glyph glyph-name="ae" unicode="&#xe6;" horiz-adv-x="1821" 
d="M939 836q41 94 136 154q96 61 214 61q202 0 319 -122t117 -363v-81v0h-704v0q0 -169 73 -271t206 -102q91 0 151 54q61 55 69 159h199q-20 -157 -125 -255q-104 -97 -284 -97q-287 0 -390 240q-92 -240 -403 -240q-187 0 -301 88t-114 234q0 133 90 217t236 106
q88 15 267 15q110 0 74 0t53 -2v0q0 156 -60 218q-60 63 -187 63q-207 0 -218 -165h-199q19 304 415 304q298 0 366 -215zM301 288q0 -77 63 -127q64 -49 163 -49q118 0 206 85q89 85 89 297h-167q-196 0 -275 -52q-79 -51 -79 -154zM1024 624h502v0q0 140 -57 214t-174 74
q-114 0 -191 -76q-76 -75 -80 -212z" />
    <glyph glyph-name="eth" unicode="&#xf0;" horiz-adv-x="1251" 
d="M430 1328v0q-69 43 -174 102l127 122q6 -2 211 -124v0l201 117l75 -74l-184 -109v0q457 -334 457 -798q0 -284 -142 -438q-141 -153 -386 -153q-224 0 -364 138q-139 139 -139 397q0 228 128 377q128 150 359 150q86 0 156 -27q70 -26 146 -114q-41 82 -149 188
q-107 107 -225 184v0l-199 -119l-75 72zM311 509q0 -197 92 -297q93 -100 227 -100q144 0 229 106t85 307q0 188 -88 285t-221 97q-141 0 -233 -99q-91 -99 -91 -299z" />
    <glyph glyph-name="divide" unicode="&#xf7;" horiz-adv-x="1196" 
d="M491 774v240h205v-240h-205zM1112 438h-1037v160h1037v-160zM491 22v240h205v-240h-205z" />
    <glyph glyph-name="oslash" unicode="&#xf8;" horiz-adv-x="1251" 
d="M291 71v0q-185 141 -185 436q0 252 137 398q138 146 390 146q127 0 226 -43v0l123 203h124l-154 -254v0q185 -141 185 -434q0 -252 -141 -401q-140 -149 -380 -149q-131 0 -233 45v0l-134 -221h-121zM858 802v0l-392 -646v0q68 -44 159 -44q133 0 223 103t90 313
q0 172 -80 274zM386 226v0l392 653v0q-64 33 -145 33q-154 0 -241 -111q-87 -110 -87 -289q0 -183 81 -286z" />
    <glyph glyph-name="thorn" unicode="&#xfe;" horiz-adv-x="1251" 
d="M373 859q114 192 346 192q195 0 316 -136q122 -136 122 -395q0 -253 -129 -400q-128 -147 -340 -147q-110 0 -195 44q-84 45 -120 116v-533h-199v1872h199v-613zM364 493q0 -381 288 -381q142 0 224 107t82 318q0 375 -285 375q-309 0 -309 -419z" />
    <glyph glyph-name="dcroat" unicode="&#x111;" horiz-adv-x="1251" 
d="M893 1179h-267v124h267v169h199v-169h99v-124h-99v-1013q1 -34 1 -92t2 -74h-193l-5 149q-31 -68 -124 -122t-221 -54q-203 0 -323 140q-120 141 -120 374q0 262 126 413q127 151 340 151q232 0 318 -176v304zM893 518q0 192 -81 293t-221 101q-132 0 -208 -101
q-75 -101 -75 -305q0 -394 279 -394q306 0 306 406v0z" />
    <glyph glyph-name="dotlessi" unicode="&#x131;" horiz-adv-x="569" 
d="M183 1024h199v-1024h-199v1024zM292 1211v0v0zM0 1051v0v0z" />
    <glyph glyph-name="Lslash" unicode="&#x141;" 
d="M192 1472h205v-576v0l394 247v-150l-394 -252v0v-567h688v-174h-893v613v0l-150 -94v152l150 94v0v707z" />
    <glyph glyph-name="lslash" unicode="&#x142;" horiz-adv-x="569" 
d="M183 0v610v0l-137 -82v148l137 82v0v714h199v-594v0l137 82v-148l-137 -82v0v-730h-199z" />
    <glyph glyph-name="OE" unicode="&#x152;" horiz-adv-x="2048" 
d="M1943 0h-1187v0q-305 0 -486 202q-180 202 -180 528q0 373 197 557q198 185 521 185h229h900v-174h-698v-457h666v-174h-666v-493h704v-174zM1034 1289q-190 9 -221 9q-237 0 -371 -143t-134 -423q0 -269 125 -414q125 -144 428 -144q53 0 173 4v1111z" />
    <glyph glyph-name="oe" unicode="&#x153;" horiz-adv-x="1933" 
d="M1016 795q33 107 134 181q102 75 256 75q192 0 313 -118q122 -117 122 -401v-58v0h-720v0q0 -362 286 -362q72 0 140 55q68 56 79 158h199q-10 -149 -124 -251q-113 -101 -297 -101q-137 0 -238 64t-151 176q-51 -116 -160 -178t-245 -62q-219 0 -362 149
q-142 149 -142 390q0 235 144 387q145 152 371 152q280 0 395 -256zM305 518q0 -167 75 -287q75 -119 231 -119q132 0 221 106q90 106 90 316q0 178 -83 278t-218 100q-142 0 -229 -101t-87 -293zM1127 613h515v0q0 149 -58 224t-177 75q-127 0 -202 -79q-74 -79 -78 -220z
" />
    <glyph glyph-name="florin" unicode="&#x192;" 
d="M964 1383l-22 -136h-38h-33q-143 0 -178 -167l-49 -232v0h208l-28 -139h-207v0l-149 -772q-35 -186 -113 -262q-78 -75 -226 -75h-34t-27 2v0l25 137h15h20q72 0 107 51q36 51 57 161l149 758v0h-181l25 139h183v0l48 235q34 162 107 237q74 75 234 75q51 -2 67 -4
q17 -2 40 -8z" />
    <glyph glyph-name="circumflex" unicode="&#x2c6;" horiz-adv-x="569" 
d="M-32 1216l224 304h186l208 -304h-177l-130 202v0l-152 -202h-159zM275 1216v0v0z" />
    <glyph glyph-name="caron" unicode="&#x2c7;" horiz-adv-x="569" 
d="M602 1520l-224 -304h-186l-208 304h177l130 -202v0l152 202h159zM298 1216v0v0z" />
    <glyph glyph-name="macron" unicode="&#xaf;" horiz-adv-x="569" 
d="M0 1420h560v-108h-560v108zM298 1216v0v0z" />
    <glyph glyph-name="macron" unicode="&#x2c9;" horiz-adv-x="569" 
d="M0 1420h560v-108h-560v108zM298 1216v0v0z" />
    <glyph glyph-name="breve" unicode="&#x2d8;" horiz-adv-x="569" 
d="M464 1539h97q0 -323 -281 -323q-280 0 -280 323h97q0 -192 178 -192q174 0 189 192zM272 1216v0v0z" />
    <glyph glyph-name="dotaccent" unicode="&#x2d9;" horiz-adv-x="569" 
d="M192 1473h189v-209h-189v209zM289 1216v0v0z" />
    <glyph glyph-name="ring" unicode="&#x2da;" horiz-adv-x="569" 
d="M80 1369q0 84 58 142q59 59 143 59t142 -59q59 -58 59 -142t-59 -143q-58 -58 -142 -58t-143 58q-58 59 -58 143zM162 1369q0 -50 34 -85q35 -34 85 -34q49 0 84 34q35 35 35 85q0 49 -35 84t-84 35q-50 0 -85 -35q-34 -35 -34 -84zM283 1216v0v0z" />
    <glyph glyph-name="ogonek" unicode="&#x2db;" horiz-adv-x="569" 
d="M334 7h82q-86 -68 -122 -111q-36 -42 -36 -94q0 -100 131 -100q53 0 93 23v-83q-99 -51 -188 -51q-91 0 -145 42q-53 43 -53 114q0 134 238 260zM373 0v0v0z" />
    <glyph glyph-name="tilde" unicode="&#x2dc;" horiz-adv-x="569" 
d="M0 1248q4 81 49 140q46 60 126 60q39 0 121 -25q82 -24 114 -24q65 0 73 75h85q0 -111 -52 -159q-51 -47 -121 -47q-44 0 -131 24q-86 25 -100 25q-64 0 -76 -69h-88zM311 1216v0v0z" />
    <glyph glyph-name="hungarumlaut" unicode="&#x2dd;" horiz-adv-x="819" 
d="M80 1216l172 288h212l-251 -288h-133zM400 1216l172 288h212l-251 -288h-133zM297 1216v0v0z" />
    <glyph glyph-name="endash" unicode="&#x2013;" horiz-adv-x="1024" 
d="M0 615h1024v-146h-1024v146z" />
    <glyph glyph-name="emdash" unicode="&#x2014;" horiz-adv-x="2048" 
d="M0 615h2048v-146h-2048v146z" />
    <glyph glyph-name="quoteright" unicode="&#x2019;" horiz-adv-x="569" 
d="M96 976l130 496h238l-230 -496h-138z" />
    <glyph glyph-name="quotedblright" unicode="&#x201d;" 
d="M202 976l130 496h238l-230 -496h-138zM586 976l130 496h238l-230 -496h-138z" />
    <glyph glyph-name="dagger" unicode="&#x2020;" 
d="M131 1120h352v352h163v-352h352v-154h-352v-966h-163v966h-352v154z" />
    <glyph glyph-name="daggerdbl" unicode="&#x2021;" 
d="M128 1136h352v336h163v-336h352v-154h-352v-476h352v-154h-352v-352h-163v352h-352v154h352v476h-352v154z" />
    <glyph glyph-name="bullet" unicode="&#x2022;" horiz-adv-x="717" 
d="M0 743q0 150 107 259q108 109 261 109q150 0 259 -109t109 -259q0 -153 -109 -261q-109 -107 -259 -107q-153 0 -261 107q-107 108 -107 261z" />
    <glyph glyph-name="ellipsis" unicode="&#x2026;" horiz-adv-x="2048" 
d="M259 246h227v-246h-227v246zM915 246h227v-246h-227v246zM1571 0v246h227v-246h-227z" />
    <glyph glyph-name="perthousand" unicode="&#x2030;" horiz-adv-x="2048" 
d="M100 -82l964 1588h124l-961 -1588h-127zM709 311q0 351 312 351q143 0 214 -90t71 -248q0 -168 -78 -261q-77 -93 -223 -93q-296 0 -296 341zM858 309q0 -223 152 -223q147 0 147 234q0 226 -145 226q-154 0 -154 -237zM1418 311q0 351 312 351q143 0 214 -92
q71 -91 71 -246q0 -164 -78 -259q-77 -95 -223 -95q-296 0 -296 341zM1567 309q0 -223 152 -223q147 0 147 234q0 226 -145 226q-154 0 -154 -237zM19 1118q0 351 312 351q143 0 214 -94q71 -93 71 -244q0 -168 -78 -261t-223 -93q-296 0 -296 341zM168 1116
q0 -223 152 -223q147 0 147 234q0 226 -145 226q-154 0 -154 -237z" />
    <glyph glyph-name="guilsinglright" unicode="&#x203a;" horiz-adv-x="569" 
d="M444 501l-221 -400h-163l192 400l-192 400h163z" />
    <glyph glyph-name="foursuperior" unicode="&#x2074;" horiz-adv-x="682" 
d="M0 915l401 534h143v-586h135v-98h-135v-189h-127v189h-417v150zM101 863v0h316v447v0z" />
    <glyph glyph-name="Euro" unicode="&#x20ac;" 
d="M366 930h519l-34 -134h-492q-2 -24 -2 -69q0 -31 2 -59h446l-37 -134h-395q50 -401 324 -401q224 0 261 240h183q0 -177 -131 -290q-130 -113 -314 -113q-469 0 -528 564h-162l37 134h111l-2 39q0 38 2 89h-148l37 134h125q43 249 174 386q132 138 356 138
q191 0 318 -109q128 -109 128 -289h-183q-42 240 -258 240q-135 0 -221 -95q-86 -94 -116 -271z" />
    <glyph glyph-name="partialdiff" unicode="&#x2202;" horiz-adv-x="1012" 
d="M772 690q21 120 21 243q0 223 -94 364q-93 142 -257 142q-106 0 -229 -68l-79 103q144 58 268 58q250 0 399 -207q150 -207 150 -508q0 -344 -132 -603t-376 -259q-164 0 -276 116q-112 117 -112 283q0 183 115 329q116 146 286 146t316 -139zM753 616q-97 133 -220 133
q-117 0 -210 -126q-92 -125 -92 -326q0 -150 54 -216q55 -65 130 -65q126 0 212 144q87 144 126 456z" />
    <glyph glyph-name="Delta" unicode="&#x2206;" horiz-adv-x="1253" 
d="M11 0l656 1407l576 -1407h-1232zM145 100v0h845v0l-399 955z" />
    <glyph glyph-name="summation" unicode="&#x2211;" horiz-adv-x="1460" 
d="M29 -203l713 822l-713 932q157 -19 212 -19h1023l13 -320h-40q-36 138 -102 183q-65 45 -213 45h-543v0l562 -735l-598 -697v0h752q108 0 166 42t112 185h48q-64 -222 -88 -451q-39 8 -95 13q-55 6 -83 6h-1007q-40 0 -119 -6z" />
    <glyph glyph-name="minus" unicode="&#x2212;" horiz-adv-x="1196" 
d="M80 438v160h1040v-160h-1040z" />
    <glyph glyph-name="fraction" unicode="&#x2215;" horiz-adv-x="342" 
d="M-352 -59l878 1528h130l-874 -1528h-134z" />
    <glyph glyph-name="radical" unicode="&#x221a;" horiz-adv-x="1124" 
d="M988 1886l72 -10l-309 -1949l-499 1025l-200 -94l-32 67l301 148l406 -824z" />
    <glyph glyph-name="notequal" unicode="&#x2260;" horiz-adv-x="1196" 
d="M97 806h565v0l91 208v0h160l-91 -208v0h283v-160h-352v0l-112 -256v0h464v-160h-533v0l-91 -208v0h-160l88 208v0h-312v160h384v0l110 256v0h-494v160z" />
    <glyph glyph-name="greaterequal" unicode="&#x2265;" horiz-adv-x="1196" 
d="M1115 129v-160h-1040v160h1040zM1115 792v-167l-1040 -416v177l829 323l-829 322v177z" />
    <glyph glyph-name="lozenge" unicode="&#x25ca;" horiz-adv-x="1012" 
d="M562 1520l400 -748l-400 -772h-127l-400 772l400 748h127zM499 1404l-337 -634l337 -654l336 654z" />
    <glyph glyph-name="unif001" unicode="&#xf001;" horiz-adv-x="1251" 
d="M44 1024h192v161q0 164 77 237q78 73 241 73q77 0 153 -14v-153q-11 2 -50 3q-38 1 -56 1q-97 0 -132 -30q-34 -29 -34 -100v-178h240v-139h-240v-885h-199v885h-192v139zM860 1024h199v-1024h-199v1024zM838 1475h243v-211h-243v211z" />
    <glyph glyph-name="unif002" unicode="&#xf002;" horiz-adv-x="1251" 
d="M44 1024h192v161q0 164 77 237q78 73 241 73q81 0 153 -14v-153q-11 2 -50 3q-38 1 -56 1q-97 0 -132 -30q-34 -29 -34 -100v-178h240v-139h-240v-885h-199v885h-192v139zM860 0v1472h199v-1472h-199z" />
    <glyph glyph-name="unif151" unicode="&#xf151;" horiz-adv-x="569" 
d="M191 1276v196h186v-193q0 -237 -186 -291v88q101 20 101 200h-101z" />
    <glyph glyph-name="commaaccent" unicode="&#xf170;" horiz-adv-x="569" 
d="M192 -352v144h192v-142q0 -172 -192 -210v62q107 16 107 146h-107zM300 0v0v0z" />
    <glyph glyph-name="unif171" unicode="&#xf171;" horiz-adv-x="569" 
d="M384 1350v-144h-192v141q0 169 192 211v-62q-107 -17 -107 -146h107zM311 1216v0v0z" />
    <glyph glyph-name="Agrave" unicode="&#xc0;" horiz-adv-x="1479" 
d="M19 0l608 1472h218l608 -1472h-224l-163 384v0h-681v0l-155 -384h-211zM453 558v0h545v0l-272 713v0zM747 1583v0v0zM1403 0v0v0zM0 1503v0v0zM723 1583l-273 288h233l167 -288h-127zM747 1583v0v0z" />
    <glyph glyph-name="Aacute" unicode="&#xc1;" horiz-adv-x="1479" 
d="M19 0l608 1472h218l608 -1472h-224l-163 384v0h-681v0l-155 -384h-211zM453 558v0h545v0l-272 713v0zM747 1583v0v0zM1403 0v0v0zM0 1503v0v0zM630 1583l172 288h212l-251 -288h-133zM747 1583v0v0z" />
    <glyph glyph-name="Acircumflex" unicode="&#xc2;" horiz-adv-x="1479" 
d="M19 0l608 1472h218l608 -1472h-224l-163 384v0h-681v0l-155 -384h-211zM453 558v0h545v0l-272 713v0zM747 1583v0v0zM1403 0v0v0zM0 1503v0v0zM440 1583l224 304h186l208 -304h-177l-130 202v0l-152 -202h-159zM747 1583v0v0z" />
    <glyph glyph-name="Atilde" unicode="&#xc3;" horiz-adv-x="1479" 
d="M19 0l608 1472h218l608 -1472h-224l-163 384v0h-681v0l-155 -384h-211zM453 558v0h545v0l-272 713v0zM747 1583v0v0zM1403 0v0v0zM0 1503v0v0zM436 1615q4 81 49 140q46 60 126 60q39 0 121 -25q82 -24 114 -24q65 0 73 75h85q0 -111 -52 -159q-51 -47 -121 -47
q-44 0 -131 24q-86 25 -100 25q-64 0 -76 -69h-88zM747 1583v0v0z" />
    <glyph glyph-name="Adieresis" unicode="&#xc4;" horiz-adv-x="1479" 
d="M19 0l608 1472h218l608 -1472h-224l-163 384v0h-681v0l-155 -384h-211zM453 558v0h545v0l-272 713v0zM747 1583v0v0zM1403 0v0v0zM0 1503v0v0zM458 1840h189v-209h-189v209zM839 1840h189v-209h-189v209zM747 1583v0v0z" />
    <glyph glyph-name="Aring" unicode="&#xc5;" horiz-adv-x="1479" 
d="M19 0l608 1472h218l608 -1472h-224l-163 384v0h-681v0l-155 -384h-211zM453 558v0h545v0l-272 713v0zM747 1583v0v0zM1403 0v0v0zM0 1503v0v0zM544 1736q0 84 58 142q59 59 143 59t142 -59q59 -58 59 -142t-59 -143q-58 -58 -142 -58t-143 58q-58 59 -58 143zM626 1736
q0 -50 34 -85q35 -34 85 -34q49 0 84 34q35 35 35 85q0 49 -35 84t-84 35q-50 0 -85 -35q-34 -35 -34 -84zM747 1583v0v0z" />
    <glyph glyph-name="Ccedilla" unicode="&#xc7;" horiz-adv-x="1366" 
d="M1072 385h218q-11 -165 -152 -291q-140 -125 -400 -125q-294 0 -460 196t-166 559q0 343 164 561q165 218 485 218q243 0 386 -123t143 -293v0h-218v0q-36 242 -322 242q-209 0 -315 -162q-105 -161 -105 -450q0 -574 426 -574q276 0 316 242zM765 1583v0v0zM756 0v0v0z
M511 -391l41 73q52 -24 141 -24q110 0 110 86q0 82 -104 82q-51 0 -76 -20l-32 34l130 176h85l-91 -122q41 10 83 10q72 0 116 -41q45 -40 45 -106q0 -77 -64 -132q-63 -55 -192 -55q-114 0 -192 39zM756 0v0v0z" />
    <glyph glyph-name="Egrave" unicode="&#xc8;" horiz-adv-x="1251" 
d="M157 0v1472h925v-174h-720v-457h685v-174h-685v-493h736v-174h-941zM666 1583v0v0zM1024 0v0v0zM0 1503v0v0zM642 1583l-273 288h233l167 -288h-127zM666 1583v0v0z" />
    <glyph glyph-name="Eacute" unicode="&#xc9;" horiz-adv-x="1251" 
d="M157 0v1472h925v-174h-720v-457h685v-174h-685v-493h736v-174h-941zM666 1583v0v0zM1024 0v0v0zM0 1503v0v0zM549 1583l172 288h212l-251 -288h-133zM666 1583v0v0z" />
    <glyph glyph-name="Ecircumflex" unicode="&#xca;" horiz-adv-x="1251" 
d="M157 0v1472h925v-174h-720v-457h685v-174h-685v-493h736v-174h-941zM666 1583v0v0zM1024 0v0v0zM0 1503v0v0zM359 1583l224 304h186l208 -304h-177l-130 202v0l-152 -202h-159zM666 1583v0v0z" />
    <glyph glyph-name="Edieresis" unicode="&#xcb;" horiz-adv-x="1251" 
d="M157 0v1472h925v-174h-720v-457h685v-174h-685v-493h736v-174h-941zM666 1583v0v0zM1024 0v0v0zM0 1503v0v0zM377 1840h189v-209h-189v209zM758 1840h189v-209h-189v209zM666 1583v0v0z" />
    <glyph glyph-name="Igrave" unicode="&#xcc;" horiz-adv-x="569" 
d="M179 1472h205v-1472h-205v1472zM284 1583v0v0zM326 0v0v0zM0 1503v0v0zM260 1583l-273 288h233l167 -288h-127zM284 1583v0v0z" />
    <glyph glyph-name="Iacute" unicode="&#xcd;" horiz-adv-x="569" 
d="M179 1472h205v-1472h-205v1472zM284 1583v0v0zM326 0v0v0zM0 1503v0v0zM167 1583l172 288h212l-251 -288h-133zM284 1583v0v0z" />
    <glyph glyph-name="Icircumflex" unicode="&#xce;" horiz-adv-x="569" 
d="M179 1472h205v-1472h-205v1472zM284 1583v0v0zM326 0v0v0zM0 1503v0v0zM-23 1583l224 304h186l208 -304h-177l-130 202v0l-152 -202h-159zM284 1583v0v0z" />
    <glyph glyph-name="Idieresis" unicode="&#xcf;" horiz-adv-x="569" 
d="M179 1472h205v-1472h-205v1472zM284 1583v0v0zM326 0v0v0zM0 1503v0v0zM-5 1840h189v-209h-189v209zM376 1840h189v-209h-189v209zM284 1583v0v0z" />
    <glyph glyph-name="Ntilde" unicode="&#xd1;" horiz-adv-x="1593" 
d="M195 1472h285l723 -1219v0v1219h189v-1472h-262l-746 1242v0v-1242h-189v1472zM826 1583v0v0zM812 0v0v0zM0 1503v0v0zM515 1615q4 81 49 140q46 60 126 60q39 0 121 -25q82 -24 114 -24q65 0 73 75h85q0 -111 -52 -159q-51 -47 -121 -47q-44 0 -131 24q-86 25 -100 25
q-64 0 -76 -69h-88zM826 1583v0v0z" />
    <glyph glyph-name="Ograve" unicode="&#xd2;" horiz-adv-x="1593" 
d="M122 736q0 356 182 561q183 206 506 206q317 0 491 -200q175 -199 175 -555q0 -366 -175 -573q-174 -206 -507 -206q-342 0 -507 200q-165 201 -165 567zM340 736q0 -285 116 -439q117 -154 336 -154q466 0 466 607q0 579 -448 579q-470 0 -470 -593zM825 1583v0v0z
M801 1583l-273 288h233l167 -288h-127zM825 1583v0v0z" />
    <glyph glyph-name="Oacute" unicode="&#xd3;" horiz-adv-x="1593" 
d="M122 736q0 356 182 561q183 206 506 206q317 0 491 -200q175 -199 175 -555q0 -366 -175 -573q-174 -206 -507 -206q-342 0 -507 200q-165 201 -165 567zM340 736q0 -285 116 -439q117 -154 336 -154q466 0 466 607q0 579 -448 579q-470 0 -470 -593zM825 1583v0v0z
M708 1583l172 288h212l-251 -288h-133zM825 1583v0v0z" />
    <glyph glyph-name="Ocircumflex" unicode="&#xd4;" horiz-adv-x="1593" 
d="M122 736q0 356 182 561q183 206 506 206q317 0 491 -200q175 -199 175 -555q0 -366 -175 -573q-174 -206 -507 -206q-342 0 -507 200q-165 201 -165 567zM340 736q0 -285 116 -439q117 -154 336 -154q466 0 466 607q0 579 -448 579q-470 0 -470 -593zM825 1583v0v0z
M518 1583l224 304h186l208 -304h-177l-130 202v0l-152 -202h-159zM825 1583v0v0z" />
    <glyph glyph-name="Otilde" unicode="&#xd5;" horiz-adv-x="1593" 
d="M122 736q0 356 182 561q183 206 506 206q317 0 491 -200q175 -199 175 -555q0 -366 -175 -573q-174 -206 -507 -206q-342 0 -507 200q-165 201 -165 567zM340 736q0 -285 116 -439q117 -154 336 -154q466 0 466 607q0 579 -448 579q-470 0 -470 -593zM825 1583v0v0z
M514 1615q4 81 49 140q46 60 126 60q39 0 121 -25q82 -24 114 -24q65 0 73 75h85q0 -111 -52 -159q-51 -47 -121 -47q-44 0 -131 24q-86 25 -100 25q-64 0 -76 -69h-88zM825 1583v0v0z" />
    <glyph glyph-name="Odieresis" unicode="&#xd6;" horiz-adv-x="1593" 
d="M122 736q0 356 182 561q183 206 506 206q317 0 491 -200q175 -199 175 -555q0 -366 -175 -573q-174 -206 -507 -206q-342 0 -507 200q-165 201 -165 567zM340 736q0 -285 116 -439q117 -154 336 -154q466 0 466 607q0 579 -448 579q-470 0 -470 -593zM825 1583v0v0z
M536 1840h189v-209h-189v209zM917 1840h189v-209h-189v209zM825 1583v0v0z" />
    <glyph glyph-name="Ugrave" unicode="&#xd9;" horiz-adv-x="1593" 
d="M192 1472h205v-929q0 -213 111 -307q112 -93 297 -93q189 0 292 95t103 326v908h205v-922v0q0 -271 -162 -426t-430 -155q-284 0 -453 142q-168 143 -168 421v36v904zM789 1583v0v0zM969 0v0v0zM0 1503v0v0zM765 1583l-273 288h233l167 -288h-127zM789 1583v0v0z" />
    <glyph glyph-name="Uacute" unicode="&#xda;" horiz-adv-x="1593" 
d="M192 1472h205v-929q0 -213 111 -307q112 -93 297 -93q189 0 292 95t103 326v908h205v-922v0q0 -271 -162 -426t-430 -155q-284 0 -453 142q-168 143 -168 421v36v904zM789 1583v0v0zM969 0v0v0zM0 1503v0v0zM672 1583l172 288h212l-251 -288h-133zM789 1583v0v0z" />
    <glyph glyph-name="Ucircumflex" unicode="&#xdb;" horiz-adv-x="1593" 
d="M192 1472h205v-929q0 -213 111 -307q112 -93 297 -93q189 0 292 95t103 326v908h205v-922v0q0 -271 -162 -426t-430 -155q-284 0 -453 142q-168 143 -168 421v36v904zM789 1583v0v0zM969 0v0v0zM0 1503v0v0zM482 1583l224 304h186l208 -304h-177l-130 202v0l-152 -202
h-159zM789 1583v0v0z" />
    <glyph glyph-name="Udieresis" unicode="&#xdc;" horiz-adv-x="1593" 
d="M192 1472h205v-929q0 -213 111 -307q112 -93 297 -93q189 0 292 95t103 326v908h205v-922v0q0 -271 -162 -426t-430 -155q-284 0 -453 142q-168 143 -168 421v36v904zM789 1583v0v0zM969 0v0v0zM0 1503v0v0zM500 1840h189v-209h-189v209zM881 1840h189v-209h-189v209z
M789 1583v0v0z" />
    <glyph glyph-name="Yacute" unicode="&#xdd;" horiz-adv-x="1366" 
d="M16 1472h253l435 -724v0l439 724h230l-576 -897v-575h-205v575zM689 1583v0v0zM0 1503v0v0zM572 1583l172 288h212l-251 -288h-133zM689 1583v0v0z" />
    <glyph glyph-name="agrave" unicode="&#xe0;" 
d="M791 627v0q0 170 -30 208q-57 77 -190 77q-195 0 -207 -165h-193q19 304 405 304q179 0 291 -71q113 -70 113 -202v-544q0 -161 16 -226h-183q-19 94 -19 157q-101 -192 -321 -192q-158 0 -261 80t-103 220q0 165 133 263t408 98q33 0 141 -7zM791 489q-68 6 -125 6
q-358 0 -358 -198q0 -75 56 -123q56 -47 155 -47q136 0 204 78t68 284v0zM587 1211v0v0zM941 0v0v0zM563 1211l-273 288h233l167 -288h-127zM587 1211v0v0z" />
    <glyph glyph-name="aacute" unicode="&#xe1;" 
d="M791 627v0q0 170 -30 208q-57 77 -190 77q-195 0 -207 -165h-193q19 304 405 304q179 0 291 -71q113 -70 113 -202v-544q0 -161 16 -226h-183q-19 94 -19 157q-101 -192 -321 -192q-158 0 -261 80t-103 220q0 165 133 263t408 98q33 0 141 -7zM791 489q-68 6 -125 6
q-358 0 -358 -198q0 -75 56 -123q56 -47 155 -47q136 0 204 78t68 284v0zM587 1211v0v0zM941 0v0v0zM470 1211l172 288h212l-251 -288h-133zM587 1211v0v0z" />
    <glyph glyph-name="acircumflex" unicode="&#xe2;" 
d="M791 627v0q0 170 -30 208q-57 77 -190 77q-195 0 -207 -165h-193q19 304 405 304q179 0 291 -71q113 -70 113 -202v-544q0 -161 16 -226h-183q-19 94 -19 157q-101 -192 -321 -192q-158 0 -261 80t-103 220q0 165 133 263t408 98q33 0 141 -7zM791 489q-68 6 -125 6
q-358 0 -358 -198q0 -75 56 -123q56 -47 155 -47q136 0 204 78t68 284v0zM587 1211v0v0zM941 0v0v0zM280 1211l224 304h186l208 -304h-177l-130 202v0l-152 -202h-159zM587 1211v0v0z" />
    <glyph glyph-name="atilde" unicode="&#xe3;" 
d="M791 627v0q0 170 -30 208q-57 77 -190 77q-195 0 -207 -165h-193q19 304 405 304q179 0 291 -71q113 -70 113 -202v-544q0 -161 16 -226h-183q-19 94 -19 157q-101 -192 -321 -192q-158 0 -261 80t-103 220q0 165 133 263t408 98q33 0 141 -7zM791 489q-68 6 -125 6
q-358 0 -358 -198q0 -75 56 -123q56 -47 155 -47q136 0 204 78t68 284v0zM587 1211v0v0zM941 0v0v0zM276 1243q4 81 49 140q46 60 126 60q39 0 121 -25q82 -24 114 -24q65 0 73 75h85q0 -111 -52 -159q-51 -47 -121 -47q-44 0 -131 24q-86 25 -100 25q-64 0 -76 -69h-88z
M587 1211v0v0z" />
    <glyph glyph-name="adieresis" unicode="&#xe4;" 
d="M791 627v0q0 170 -30 208q-57 77 -190 77q-195 0 -207 -165h-193q19 304 405 304q179 0 291 -71q113 -70 113 -202v-544q0 -161 16 -226h-183q-19 94 -19 157q-101 -192 -321 -192q-158 0 -261 80t-103 220q0 165 133 263t408 98q33 0 141 -7zM791 489q-68 6 -125 6
q-358 0 -358 -198q0 -75 56 -123q56 -47 155 -47q136 0 204 78t68 284v0zM587 1211v0v0zM941 0v0v0zM298 1468h189v-209h-189v209zM679 1468h189v-209h-189v209zM587 1211v0v0z" />
    <glyph glyph-name="aring" unicode="&#xe5;" 
d="M791 627v0q0 170 -30 208q-57 77 -190 77q-195 0 -207 -165h-193q19 304 405 304q179 0 291 -71q113 -70 113 -202v-544q0 -161 16 -226h-183q-19 94 -19 157q-101 -192 -321 -192q-158 0 -261 80t-103 220q0 165 133 263t408 98q33 0 141 -7zM791 489q-68 6 -125 6
q-358 0 -358 -198q0 -75 56 -123q56 -47 155 -47q136 0 204 78t68 284v0zM587 1211v0v0zM941 0v0v0zM384 1364q0 84 58 142q59 59 143 59t142 -59q59 -58 59 -142t-59 -143q-58 -58 -142 -58t-143 58q-58 59 -58 143zM466 1364q0 -50 34 -85q35 -34 85 -34q49 0 84 34
q35 35 35 85q0 49 -35 84t-84 35q-50 0 -85 -35q-34 -35 -34 -84zM587 1211v0v0z" />
    <glyph glyph-name="ccedilla" unicode="&#xe7;" horiz-adv-x="1024" 
d="M774 341h199q0 -140 -113 -254t-306 -114q-217 0 -339 133q-122 134 -122 389q0 275 132 415q132 141 331 141q196 0 299 -101q104 -100 109 -251v0h-199v0q-15 213 -203 213q-270 0 -270 -391q0 -409 262 -409q90 0 155 60q65 61 65 169zM576 1211v0v0zM556 0v0v0z
M311 -391l41 73q52 -24 141 -24q110 0 110 86q0 82 -104 82q-51 0 -76 -20l-32 34l130 176h85l-91 -122q41 10 83 10q72 0 116 -41q45 -40 45 -106q0 -77 -64 -132q-63 -55 -192 -55q-114 0 -192 39zM556 0v0v0z" />
    <glyph glyph-name="egrave" unicode="&#xe8;" 
d="M305 474v0q0 -362 291 -362q92 0 160 54t77 159h199q-7 -152 -127 -252q-119 -100 -318 -100q-226 0 -354 130q-127 130 -127 396q0 271 124 411q124 141 354 141q223 0 340 -122q117 -121 117 -351v-104h-736zM314 613h528v0q0 299 -252 299q-126 0 -201 -83t-75 -216z
M584 1211v0v0zM731 0v0v0zM560 1211l-273 288h233l167 -288h-127zM584 1211v0v0z" />
    <glyph glyph-name="eacute" unicode="&#xe9;" 
d="M305 474v0q0 -362 291 -362q92 0 160 54t77 159h199q-7 -152 -127 -252q-119 -100 -318 -100q-226 0 -354 130q-127 130 -127 396q0 271 124 411q124 141 354 141q223 0 340 -122q117 -121 117 -351v-104h-736zM314 613h528v0q0 299 -252 299q-126 0 -201 -83t-75 -216z
M584 1211v0v0zM731 0v0v0zM467 1211l172 288h212l-251 -288h-133zM584 1211v0v0z" />
    <glyph glyph-name="ecircumflex" unicode="&#xea;" 
d="M305 474v0q0 -362 291 -362q92 0 160 54t77 159h199q-7 -152 -127 -252q-119 -100 -318 -100q-226 0 -354 130q-127 130 -127 396q0 271 124 411q124 141 354 141q223 0 340 -122q117 -121 117 -351v-104h-736zM314 613h528v0q0 299 -252 299q-126 0 -201 -83t-75 -216z
M584 1211v0v0zM731 0v0v0zM277 1211l224 304h186l208 -304h-177l-130 202v0l-152 -202h-159zM584 1211v0v0z" />
    <glyph glyph-name="edieresis" unicode="&#xeb;" 
d="M305 474v0q0 -362 291 -362q92 0 160 54t77 159h199q-7 -152 -127 -252q-119 -100 -318 -100q-226 0 -354 130q-127 130 -127 396q0 271 124 411q124 141 354 141q223 0 340 -122q117 -121 117 -351v-104h-736zM314 613h528v0q0 299 -252 299q-126 0 -201 -83t-75 -216z
M584 1211v0v0zM731 0v0v0zM295 1468h189v-209h-189v209zM676 1468h189v-209h-189v209zM584 1211v0v0z" />
    <glyph glyph-name="igrave" unicode="&#xec;" horiz-adv-x="569" 
d="M183 1024h199v-1024h-199v1024zM292 1211v0v0zM0 1051v0v0zM268 1211l-273 288h233l167 -288h-127zM292 1211v0v0z" />
    <glyph glyph-name="iacute" unicode="&#xed;" horiz-adv-x="569" 
d="M183 1024h199v-1024h-199v1024zM292 1211v0v0zM0 1051v0v0zM175 1211l172 288h212l-251 -288h-133zM292 1211v0v0z" />
    <glyph glyph-name="icircumflex" unicode="&#xee;" horiz-adv-x="569" 
d="M183 1024h199v-1024h-199v1024zM292 1211v0v0zM0 1051v0v0zM-15 1211l224 304h186l208 -304h-177l-130 202v0l-152 -202h-159zM292 1211v0v0z" />
    <glyph glyph-name="idieresis" unicode="&#xef;" horiz-adv-x="569" 
d="M183 1024h199v-1024h-199v1024zM292 1211v0v0zM0 1051v0v0zM3 1468h189v-209h-189v209zM384 1468h189v-209h-189v209zM292 1211v0v0z" />
    <glyph glyph-name="ntilde" unicode="&#xf1;" horiz-adv-x="1251" 
d="M385 0h-199v896q0 57 -3 128h193l9 -165q95 192 327 192q135 0 238 -69q139 -91 139 -280v-702h-199v663q0 115 -54 167q-72 73 -181 73q-113 0 -188 -76q-82 -83 -82 -213v-614zM669 1211v0v0zM659 0v0v0zM358 1243q4 81 49 140q46 60 126 60q39 0 121 -25
q82 -24 114 -24q65 0 73 75h85q0 -111 -52 -159q-51 -47 -121 -47q-44 0 -131 24q-86 25 -100 25q-64 0 -76 -69h-88zM669 1211v0v0z" />
    <glyph glyph-name="ograve" unicode="&#xf2;" horiz-adv-x="1251" 
d="M106 508q0 252 139 397q139 146 385 146q235 0 371 -141q136 -140 136 -390t-142 -399q-141 -148 -382 -148q-230 0 -369 142q-138 142 -138 393zM305 512q0 -190 86 -295q87 -105 233 -105q132 0 223 103q91 104 91 316q0 183 -85 282t-219 99q-141 0 -235 -100
t-94 -300zM630 1211v0v0zM606 1211l-273 288h233l167 -288h-127zM630 1211v0v0z" />
    <glyph glyph-name="oacute" unicode="&#xf3;" horiz-adv-x="1251" 
d="M106 508q0 252 139 397q139 146 385 146q235 0 371 -141q136 -140 136 -390t-142 -399q-141 -148 -382 -148q-230 0 -369 142q-138 142 -138 393zM305 512q0 -190 86 -295q87 -105 233 -105q132 0 223 103q91 104 91 316q0 183 -85 282t-219 99q-141 0 -235 -100
t-94 -300zM630 1211v0v0zM513 1211l172 288h212l-251 -288h-133zM630 1211v0v0z" />
    <glyph glyph-name="ocircumflex" unicode="&#xf4;" horiz-adv-x="1251" 
d="M106 508q0 252 139 397q139 146 385 146q235 0 371 -141q136 -140 136 -390t-142 -399q-141 -148 -382 -148q-230 0 -369 142q-138 142 -138 393zM305 512q0 -190 86 -295q87 -105 233 -105q132 0 223 103q91 104 91 316q0 183 -85 282t-219 99q-141 0 -235 -100
t-94 -300zM630 1211v0v0zM323 1211l224 304h186l208 -304h-177l-130 202v0l-152 -202h-159zM630 1211v0v0z" />
    <glyph glyph-name="otilde" unicode="&#xf5;" horiz-adv-x="1251" 
d="M106 508q0 252 139 397q139 146 385 146q235 0 371 -141q136 -140 136 -390t-142 -399q-141 -148 -382 -148q-230 0 -369 142q-138 142 -138 393zM305 512q0 -190 86 -295q87 -105 233 -105q132 0 223 103q91 104 91 316q0 183 -85 282t-219 99q-141 0 -235 -100
t-94 -300zM630 1211v0v0zM319 1243q4 81 49 140q46 60 126 60q39 0 121 -25q82 -24 114 -24q65 0 73 75h85q0 -111 -52 -159q-51 -47 -121 -47q-44 0 -131 24q-86 25 -100 25q-64 0 -76 -69h-88zM630 1211v0v0z" />
    <glyph glyph-name="odieresis" unicode="&#xf6;" horiz-adv-x="1251" 
d="M106 508q0 252 139 397q139 146 385 146q235 0 371 -141q136 -140 136 -390t-142 -399q-141 -148 -382 -148q-230 0 -369 142q-138 142 -138 393zM305 512q0 -190 86 -295q87 -105 233 -105q132 0 223 103q91 104 91 316q0 183 -85 282t-219 99q-141 0 -235 -100
t-94 -300zM630 1211v0v0zM341 1468h189v-209h-189v209zM722 1468h189v-209h-189v209zM630 1211v0v0z" />
    <glyph glyph-name="ugrave" unicode="&#xf9;" horiz-adv-x="1251" 
d="M158 1024h199v-653q0 -144 54 -197t159 -53q130 0 211 74q81 75 81 208v621h199v-896q0 -57 3 -128h-196l-9 165q-95 -192 -326 -192q-176 0 -276 90q-99 91 -99 267v694zM615 1211v0v0zM1011 0v0v0zM0 1051v0v0zM591 1211l-273 288h233l167 -288h-127zM615 1211v0v0z
" />
    <glyph glyph-name="uacute" unicode="&#xfa;" horiz-adv-x="1251" 
d="M158 1024h199v-653q0 -144 54 -197t159 -53q130 0 211 74q81 75 81 208v621h199v-896q0 -57 3 -128h-196l-9 165q-95 -192 -326 -192q-176 0 -276 90q-99 91 -99 267v694zM615 1211v0v0zM1011 0v0v0zM0 1051v0v0zM498 1211l172 288h212l-251 -288h-133zM615 1211v0v0z
" />
    <glyph glyph-name="ucircumflex" unicode="&#xfb;" horiz-adv-x="1251" 
d="M158 1024h199v-653q0 -144 54 -197t159 -53q130 0 211 74q81 75 81 208v621h199v-896q0 -57 3 -128h-196l-9 165q-95 -192 -326 -192q-176 0 -276 90q-99 91 -99 267v694zM615 1211v0v0zM1011 0v0v0zM0 1051v0v0zM308 1211l224 304h186l208 -304h-177l-130 202v0
l-152 -202h-159zM615 1211v0v0z" />
    <glyph glyph-name="udieresis" unicode="&#xfc;" horiz-adv-x="1251" 
d="M158 1024h199v-653q0 -144 54 -197t159 -53q130 0 211 74q81 75 81 208v621h199v-896q0 -57 3 -128h-196l-9 165q-95 -192 -326 -192q-176 0 -276 90q-99 91 -99 267v694zM615 1211v0v0zM1011 0v0v0zM0 1051v0v0zM326 1468h189v-209h-189v209zM707 1468h189v-209h-189
v209zM615 1211v0v0z" />
    <glyph glyph-name="yacute" unicode="&#xfd;" 
d="M25 1024h214l329 -791v0l315 791h214l-443 -1000l-157 -406h-199l155 390v0zM565 1211v0v0zM0 1051v0v0zM448 1211l172 288h212l-251 -288h-133zM565 1211v0v0z" />
    <glyph glyph-name="ydieresis" unicode="&#xff;" 
d="M25 1024h214l329 -791v0l315 791h214l-443 -1000l-157 -406h-199l155 390v0zM565 1211v0v0zM0 1051v0v0zM276 1468h189v-209h-189v209zM657 1468h189v-209h-189v209zM565 1211v0v0z" />
    <glyph glyph-name="Amacron" unicode="&#x100;" horiz-adv-x="1479" 
d="M19 0l608 1472h218l608 -1472h-224l-163 384v0h-681v0l-155 -384h-211zM453 558v0h545v0l-272 713v0zM747 1583v0v0zM1403 0v0v0zM0 1503v0v0zM449 1787h560v-108h-560v108zM747 1583v0v0z" />
    <glyph glyph-name="amacron" unicode="&#x101;" 
d="M791 627v0q0 170 -30 208q-57 77 -190 77q-195 0 -207 -165h-193q19 304 405 304q179 0 291 -71q113 -70 113 -202v-544q0 -161 16 -226h-183q-19 94 -19 157q-101 -192 -321 -192q-158 0 -261 80t-103 220q0 165 133 263t408 98q33 0 141 -7zM791 489q-68 6 -125 6
q-358 0 -358 -198q0 -75 56 -123q56 -47 155 -47q136 0 204 78t68 284v0zM587 1211v0v0zM941 0v0v0zM289 1415h560v-108h-560v108zM587 1211v0v0z" />
    <glyph glyph-name="Abreve" unicode="&#x102;" horiz-adv-x="1479" 
d="M19 0l608 1472h218l608 -1472h-224l-163 384v0h-681v0l-155 -384h-211zM453 558v0h545v0l-272 713v0zM747 1583v0v0zM1403 0v0v0zM0 1503v0v0zM939 1906h97q0 -323 -281 -323q-280 0 -280 323h97q0 -192 178 -192q174 0 189 192zM747 1583v0v0z" />
    <glyph glyph-name="abreve" unicode="&#x103;" 
d="M791 627v0q0 170 -30 208q-57 77 -190 77q-195 0 -207 -165h-193q19 304 405 304q179 0 291 -71q113 -70 113 -202v-544q0 -161 16 -226h-183q-19 94 -19 157q-101 -192 -321 -192q-158 0 -261 80t-103 220q0 165 133 263t408 98q33 0 141 -7zM791 489q-68 6 -125 6
q-358 0 -358 -198q0 -75 56 -123q56 -47 155 -47q136 0 204 78t68 284v0zM587 1211v0v0zM941 0v0v0zM779 1534h97q0 -323 -281 -323q-280 0 -280 323h97q0 -192 178 -192q174 0 189 192zM587 1211v0v0z" />
    <glyph glyph-name="Aogonek" unicode="&#x104;" horiz-adv-x="1479" 
d="M19 0l608 1472h218l608 -1472h-224l-163 384v0h-681v0l-155 -384h-211zM453 558v0h545v0l-272 713v0zM747 1583v0v0zM1403 0v0v0zM0 1503v0v0zM1364 7h82q-86 -68 -122 -111q-36 -42 -36 -94q0 -100 131 -100q53 0 93 23v-83q-99 -51 -188 -51q-91 0 -145 42
q-53 43 -53 114q0 134 238 260zM1403 0v0v0z" />
    <glyph glyph-name="aogonek" unicode="&#x105;" 
d="M791 627v0q0 170 -30 208q-57 77 -190 77q-195 0 -207 -165h-193q19 304 405 304q179 0 291 -71q113 -70 113 -202v-544q0 -161 16 -226h-183q-19 94 -19 157q-101 -192 -321 -192q-158 0 -261 80t-103 220q0 165 133 263t408 98q33 0 141 -7zM791 489q-68 6 -125 6
q-358 0 -358 -198q0 -75 56 -123q56 -47 155 -47q136 0 204 78t68 284v0zM587 1211v0v0zM941 0v0v0zM902 7h82q-86 -68 -122 -111q-36 -42 -36 -94q0 -100 131 -100q53 0 93 23v-83q-99 -51 -188 -51q-91 0 -145 42q-53 43 -53 114q0 134 238 260zM941 0v0v0z" />
    <glyph glyph-name="Cacute" unicode="&#x106;" horiz-adv-x="1366" 
d="M1072 385h218q-11 -165 -152 -291q-140 -125 -400 -125q-294 0 -460 196t-166 559q0 343 164 561q165 218 485 218q243 0 386 -123t143 -293v0h-218v0q-36 242 -322 242q-209 0 -315 -162q-105 -161 -105 -450q0 -574 426 -574q276 0 316 242zM765 1583v0v0zM756 0v0v0z
M648 1583l172 288h212l-251 -288h-133zM765 1583v0v0z" />
    <glyph glyph-name="cacute" unicode="&#x107;" horiz-adv-x="1024" 
d="M774 341h199q0 -140 -113 -254t-306 -114q-217 0 -339 133q-122 134 -122 389q0 275 132 415q132 141 331 141q196 0 299 -101q104 -100 109 -251v0h-199v0q-15 213 -203 213q-270 0 -270 -391q0 -409 262 -409q90 0 155 60q65 61 65 169zM576 1211v0v0zM556 0v0v0z
M459 1211l172 288h212l-251 -288h-133zM576 1211v0v0z" />
    <glyph glyph-name="Ccaron" unicode="&#x10c;" horiz-adv-x="1366" 
d="M1072 385h218q-11 -165 -152 -291q-140 -125 -400 -125q-294 0 -460 196t-166 559q0 343 164 561q165 218 485 218q243 0 386 -123t143 -293v0h-218v0q-36 242 -322 242q-209 0 -315 -162q-105 -161 -105 -450q0 -574 426 -574q276 0 316 242zM765 1583v0v0zM756 0v0v0z
M1069 1887l-224 -304h-186l-208 304h177l130 -202v0l152 202h159zM765 1583v0v0z" />
    <glyph glyph-name="ccaron" unicode="&#x10d;" horiz-adv-x="1024" 
d="M774 341h199q0 -140 -113 -254t-306 -114q-217 0 -339 133q-122 134 -122 389q0 275 132 415q132 141 331 141q196 0 299 -101q104 -100 109 -251v0h-199v0q-15 213 -203 213q-270 0 -270 -391q0 -409 262 -409q90 0 155 60q65 61 65 169zM576 1211v0v0zM556 0v0v0z
M880 1515l-224 -304h-186l-208 304h177l130 -202v0l152 202h159zM576 1211v0v0z" />
    <glyph glyph-name="Dcaron" unicode="&#x10e;" horiz-adv-x="1479" 
d="M179 0v1472h507q361 0 533 -206q173 -206 173 -547q0 -329 -160 -524q-159 -195 -555 -195h-498zM384 174h253q295 0 416 144q121 145 121 405q0 280 -126 427q-125 148 -392 148h-272v-1124zM677 1583v0v0zM0 1503v0v0zM981 1887l-224 -304h-186l-208 304h177l130 -202
v0l152 202h159zM677 1583v0v0z" />
    <glyph glyph-name="Emacron" unicode="&#x112;" horiz-adv-x="1251" 
d="M157 0v1472h925v-174h-720v-457h685v-174h-685v-493h736v-174h-941zM666 1583v0v0zM1024 0v0v0zM0 1503v0v0zM368 1787h560v-108h-560v108zM666 1583v0v0z" />
    <glyph glyph-name="emacron" unicode="&#x113;" 
d="M305 474v0q0 -362 291 -362q92 0 160 54t77 159h199q-7 -152 -127 -252q-119 -100 -318 -100q-226 0 -354 130q-127 130 -127 396q0 271 124 411q124 141 354 141q223 0 340 -122q117 -121 117 -351v-104h-736zM314 613h528v0q0 299 -252 299q-126 0 -201 -83t-75 -216z
M584 1211v0v0zM731 0v0v0zM286 1415h560v-108h-560v108zM584 1211v0v0z" />
    <glyph glyph-name="Edotaccent" unicode="&#x116;" horiz-adv-x="1251" 
d="M157 0v1472h925v-174h-720v-457h685v-174h-685v-493h736v-174h-941zM666 1583v0v0zM1024 0v0v0zM0 1503v0v0zM569 1840h189v-209h-189v209zM666 1583v0v0z" />
    <glyph glyph-name="edotaccent" unicode="&#x117;" 
d="M305 474v0q0 -362 291 -362q92 0 160 54t77 159h199q-7 -152 -127 -252q-119 -100 -318 -100q-226 0 -354 130q-127 130 -127 396q0 271 124 411q124 141 354 141q223 0 340 -122q117 -121 117 -351v-104h-736zM314 613h528v0q0 299 -252 299q-126 0 -201 -83t-75 -216z
M584 1211v0v0zM731 0v0v0zM487 1468h189v-209h-189v209zM584 1211v0v0z" />
    <glyph glyph-name="Eogonek" unicode="&#x118;" horiz-adv-x="1251" 
d="M157 0v1472h925v-174h-720v-457h685v-174h-685v-493h736v-174h-941zM666 1583v0v0zM1024 0v0v0zM0 1503v0v0zM985 7h82q-86 -68 -122 -111q-36 -42 -36 -94q0 -100 131 -100q53 0 93 23v-83q-99 -51 -188 -51q-91 0 -145 42q-53 43 -53 114q0 134 238 260zM1024 0v0v0z
" />
    <glyph glyph-name="eogonek" unicode="&#x119;" 
d="M305 474v0q0 -362 291 -362q92 0 160 54t77 159h199q-7 -152 -127 -252q-119 -100 -318 -100q-226 0 -354 130q-127 130 -127 396q0 271 124 411q124 141 354 141q223 0 340 -122q117 -121 117 -351v-104h-736zM314 613h528v0q0 299 -252 299q-126 0 -201 -83t-75 -216z
M584 1211v0v0zM731 0v0v0zM692 7h82q-86 -68 -122 -111q-36 -42 -36 -94q0 -100 131 -100q53 0 93 23v-83q-99 -51 -188 -51q-91 0 -145 42q-53 43 -53 114q0 134 238 260zM731 0v0v0z" />
    <glyph glyph-name="Ecaron" unicode="&#x11a;" horiz-adv-x="1251" 
d="M157 0v1472h925v-174h-720v-457h685v-174h-685v-493h736v-174h-941zM666 1583v0v0zM1024 0v0v0zM0 1503v0v0zM970 1887l-224 -304h-186l-208 304h177l130 -202v0l152 202h159zM666 1583v0v0z" />
    <glyph glyph-name="ecaron" unicode="&#x11b;" 
d="M305 474v0q0 -362 291 -362q92 0 160 54t77 159h199q-7 -152 -127 -252q-119 -100 -318 -100q-226 0 -354 130q-127 130 -127 396q0 271 124 411q124 141 354 141q223 0 340 -122q117 -121 117 -351v-104h-736zM314 613h528v0q0 299 -252 299q-126 0 -201 -83t-75 -216z
M584 1211v0v0zM731 0v0v0zM888 1515l-224 -304h-186l-208 304h177l130 -202v0l152 202h159zM584 1211v0v0z" />
    <glyph glyph-name="Gbreve" unicode="&#x11e;" horiz-adv-x="1593" 
d="M868 608v174h544v-721q-254 -92 -508 -92q-395 0 -581 212q-185 212 -185 537q0 315 180 550t547 235q267 0 407 -122q140 -121 140 -278h-218q-15 104 -105 165q-89 61 -229 61q-254 0 -379 -165t-125 -442q0 -252 122 -416q123 -163 410 -163q158 0 319 45v420h-339z
M825 1583v0v0zM865 0v0v0zM1017 1906h97q0 -323 -281 -323q-280 0 -280 323h97q0 -192 178 -192q174 0 189 192zM825 1583v0v0z" />
    <glyph glyph-name="gbreve" unicode="&#x11f;" horiz-adv-x="1251" 
d="M159 -68h205q8 -197 237 -197q174 0 230 114q43 87 43 343v0q-78 -176 -324 -176q-229 0 -337 140q-107 140 -107 365q0 256 128 393t332 137q212 0 320 -160l4 133h186q-2 -17 -2 -76q0 -58 -1 -91v-695q0 -215 -22 -305q-21 -89 -84 -149q-110 -112 -369 -112
q-230 0 -333 76q-103 77 -106 260zM874 554q0 188 -85 273t-211 85q-273 0 -273 -384q0 -180 71 -277q72 -96 202 -96q151 0 223 100q73 101 73 299v0zM627 1211v0v0zM819 1534h97q0 -323 -281 -323q-280 0 -280 323h97q0 -192 178 -192q174 0 189 192zM627 1211v0v0z" />
    <glyph glyph-name="Gcommaaccent" unicode="&#x122;" horiz-adv-x="1593" 
d="M868 608v174h544v-721q-254 -92 -508 -92q-395 0 -581 212q-185 212 -185 537q0 315 180 550t547 235q267 0 407 -122q140 -121 140 -278h-218q-15 104 -105 165q-89 61 -229 61q-254 0 -379 -165t-125 -442q0 -252 122 -416q123 -163 410 -163q158 0 319 45v420h-339z
M825 1583v0v0zM865 0v0v0zM757 -352v144h192v-142q0 -172 -192 -210v62q107 16 107 146h-107zM865 0v0v0z" />
    <glyph glyph-name="gcommaaccent" unicode="&#x123;" horiz-adv-x="1251" 
d="M159 -68h205q8 -197 237 -197q174 0 230 114q43 87 43 343v0q-78 -176 -324 -176q-229 0 -337 140q-107 140 -107 365q0 256 128 393t332 137q212 0 320 -160l4 133h186q-2 -17 -2 -76q0 -58 -1 -91v-695q0 -215 -22 -305q-21 -89 -84 -149q-110 -112 -369 -112
q-230 0 -333 76q-103 77 -106 260zM874 554q0 188 -85 273t-211 85q-273 0 -273 -384q0 -180 71 -277q72 -96 202 -96q151 0 223 100q73 101 73 299v0zM627 1211v0v0zM700 1345v-144h-192v141q0 169 192 211v-62q-107 -17 -107 -146h107zM627 1211v0v0z" />
    <glyph glyph-name="Imacron" unicode="&#x12a;" horiz-adv-x="569" 
d="M179 1472h205v-1472h-205v1472zM284 1583v0v0zM326 0v0v0zM0 1503v0v0zM-14 1787h560v-108h-560v108zM284 1583v0v0z" />
    <glyph glyph-name="imacron" unicode="&#x12b;" horiz-adv-x="569" 
d="M183 1024h199v-1024h-199v1024zM292 1211v0v0zM0 1051v0v0zM-6 1415h560v-108h-560v108zM292 1211v0v0z" />
    <glyph glyph-name="Iogonek" unicode="&#x12e;" horiz-adv-x="569" 
d="M179 1472h205v-1472h-205v1472zM284 1583v0v0zM326 0v0v0zM0 1503v0v0zM287 7h82q-86 -68 -122 -111q-36 -42 -36 -94q0 -100 131 -100q53 0 93 23v-83q-99 -51 -188 -51q-91 0 -145 42q-53 43 -53 114q0 134 238 260zM326 0v0v0z" />
    <glyph glyph-name="iogonek" unicode="&#x12f;" horiz-adv-x="569" 
d="M183 1024h199v-1024h-199v1024zM161 1475h243v-211h-243v211zM312 0v0v0zM273 7h82q-86 -68 -122 -111q-36 -42 -36 -94q0 -100 131 -100q53 0 93 23v-83q-99 -51 -188 -51q-91 0 -145 42q-53 43 -53 114q0 134 238 260zM312 0v0v0z" />
    <glyph glyph-name="Idotaccent" unicode="&#x130;" horiz-adv-x="569" 
d="M179 1472h205v-1472h-205v1472zM284 1583v0v0zM326 0v0v0zM0 1503v0v0zM187 1840h189v-209h-189v209zM284 1583v0v0z" />
    <glyph glyph-name="Kcommaaccent" unicode="&#x136;" horiz-adv-x="1366" 
d="M394 828v0l614 644h282l-659 -661l729 -811h-288l-678 782v0v-782h-205v1472h205v-644zM742 0v0v0zM634 -352v144h192v-142q0 -172 -192 -210v62q107 16 107 146h-107zM742 0v0v0z" />
    <glyph glyph-name="kcommaaccent" unicode="&#x137;" horiz-adv-x="1024" 
d="M364 604v0l388 420h252l-438 -436l466 -588h-252l-416 552v0v-552h-199v1472h199v-868zM571 0v0v0zM463 -352v144h192v-142q0 -172 -192 -210v62q107 16 107 146h-107zM571 0v0v0z" />
    <glyph glyph-name="Lacute" unicode="&#x139;" 
d="M192 1472h205v-1298h688v-174h-893v1472zM304 1583v0v0zM663 0v0v0zM0 1503v0v0zM187 1583l172 288h212l-251 -288h-133zM304 1583v0v0z" />
    <glyph glyph-name="lacute" unicode="&#x13a;" horiz-adv-x="569" 
d="M183 0v1472h199v-1472h-199zM289 1632v0v0zM289 0v0v0zM172 1632l172 288h212l-251 -288h-133zM289 1632v0v0z" />
    <glyph glyph-name="Lcommaaccent" unicode="&#x13b;" 
d="M192 1472h205v-1298h688v-174h-893v1472zM304 1583v0v0zM663 0v0v0zM0 1503v0v0zM555 -352v144h192v-142q0 -172 -192 -210v62q107 16 107 146h-107zM663 0v0v0z" />
    <glyph glyph-name="lcommaaccent" unicode="&#x13c;" horiz-adv-x="569" 
d="M183 0v1472h199v-1472h-199zM289 1632v0v0zM289 0v0v0zM181 -352v144h192v-142q0 -172 -192 -210v62q107 16 107 146h-107zM289 0v0v0z" />
    <glyph glyph-name="Nacute" unicode="&#x143;" horiz-adv-x="1593" 
d="M195 1472h285l723 -1219v0v1219h189v-1472h-262l-746 1242v0v-1242h-189v1472zM826 1583v0v0zM812 0v0v0zM0 1503v0v0zM709 1583l172 288h212l-251 -288h-133zM826 1583v0v0z" />
    <glyph glyph-name="nacute" unicode="&#x144;" horiz-adv-x="1251" 
d="M385 0h-199v896q0 57 -3 128h193l9 -165q95 192 327 192q135 0 238 -69q139 -91 139 -280v-702h-199v663q0 115 -54 167q-72 73 -181 73q-113 0 -188 -76q-82 -83 -82 -213v-614zM669 1211v0v0zM659 0v0v0zM552 1211l172 288h212l-251 -288h-133zM669 1211v0v0z" />
    <glyph glyph-name="Ncommaaccent" unicode="&#x145;" horiz-adv-x="1593" 
d="M195 1472h285l723 -1219v0v1219h189v-1472h-262l-746 1242v0v-1242h-189v1472zM826 1583v0v0zM812 0v0v0zM0 1503v0v0zM704 -352v144h192v-142q0 -172 -192 -210v62q107 16 107 146h-107zM812 0v0v0z" />
    <glyph glyph-name="ncommaaccent" unicode="&#x146;" horiz-adv-x="1251" 
d="M385 0h-199v896q0 57 -3 128h193l9 -165q95 192 327 192q135 0 238 -69q139 -91 139 -280v-702h-199v663q0 115 -54 167q-72 73 -181 73q-113 0 -188 -76q-82 -83 -82 -213v-614zM669 1211v0v0zM659 0v0v0zM551 -352v144h192v-142q0 -172 -192 -210v62q107 16 107 146
h-107zM659 0v0v0z" />
    <glyph glyph-name="Ncaron" unicode="&#x147;" horiz-adv-x="1593" 
d="M195 1472h285l723 -1219v0v1219h189v-1472h-262l-746 1242v0v-1242h-189v1472zM826 1583v0v0zM812 0v0v0zM0 1503v0v0zM1130 1887l-224 -304h-186l-208 304h177l130 -202v0l152 202h159zM826 1583v0v0z" />
    <glyph glyph-name="ncaron" unicode="&#x148;" horiz-adv-x="1251" 
d="M385 0h-199v896q0 57 -3 128h193l9 -165q95 192 327 192q135 0 238 -69q139 -91 139 -280v-702h-199v663q0 115 -54 167q-72 73 -181 73q-113 0 -188 -76q-82 -83 -82 -213v-614zM669 1211v0v0zM659 0v0v0zM973 1515l-224 -304h-186l-208 304h177l130 -202v0l152 202h159
zM669 1211v0v0z" />
    <glyph glyph-name="Omacron" unicode="&#x14c;" horiz-adv-x="1593" 
d="M122 736q0 356 182 561q183 206 506 206q317 0 491 -200q175 -199 175 -555q0 -366 -175 -573q-174 -206 -507 -206q-342 0 -507 200q-165 201 -165 567zM340 736q0 -285 116 -439q117 -154 336 -154q466 0 466 607q0 579 -448 579q-470 0 -470 -593zM825 1583v0v0z
M527 1787h560v-108h-560v108zM825 1583v0v0z" />
    <glyph glyph-name="omacron" unicode="&#x14d;" horiz-adv-x="1251" 
d="M106 508q0 252 139 397q139 146 385 146q235 0 371 -141q136 -140 136 -390t-142 -399q-141 -148 -382 -148q-230 0 -369 142q-138 142 -138 393zM305 512q0 -190 86 -295q87 -105 233 -105q132 0 223 103q91 104 91 316q0 183 -85 282t-219 99q-141 0 -235 -100
t-94 -300zM630 1211v0v0zM332 1415h560v-108h-560v108zM630 1211v0v0z" />
    <glyph glyph-name="Ohungarumlaut" unicode="&#x150;" horiz-adv-x="1593" 
d="M122 736q0 356 182 561q183 206 506 206q317 0 491 -200q175 -199 175 -555q0 -366 -175 -573q-174 -206 -507 -206q-342 0 -507 200q-165 201 -165 567zM340 736q0 -285 116 -439q117 -154 336 -154q466 0 466 607q0 579 -448 579q-470 0 -470 -593zM825 1583v0v0z
M608 1583l172 288h212l-251 -288h-133zM928 1583l172 288h212l-251 -288h-133zM825 1583v0v0z" />
    <glyph glyph-name="ohungarumlaut" unicode="&#x151;" horiz-adv-x="1251" 
d="M106 508q0 252 139 397q139 146 385 146q235 0 371 -141q136 -140 136 -390t-142 -399q-141 -148 -382 -148q-230 0 -369 142q-138 142 -138 393zM305 512q0 -190 86 -295q87 -105 233 -105q132 0 223 103q91 104 91 316q0 183 -85 282t-219 99q-141 0 -235 -100
t-94 -300zM630 1211v0v0zM413 1211l172 288h212l-251 -288h-133zM733 1211l172 288h212l-251 -288h-133zM630 1211v0v0z" />
    <glyph glyph-name="Racute" unicode="&#x154;" horiz-adv-x="1366" 
d="M176 0v1472h547q243 0 366 -100q124 -100 124 -267q0 -135 -80 -233q-79 -97 -202 -123q105 -24 156 -83q51 -58 67 -172q14 -105 34 -244t63 -250h-218q-39 127 -70 411q-16 151 -82 203q-66 53 -227 53h-273v-667h-205zM381 841h324q182 0 236 62q54 63 54 158
q0 122 -69 179q-69 58 -207 58h-338v-457zM699 1583v0v0zM715 0v0v0zM0 1503v0v0zM582 1583l172 288h212l-251 -288h-133zM699 1583v0v0z" />
    <glyph glyph-name="racute" unicode="&#x155;" horiz-adv-x="797" 
d="M756 1051v-185q-31 4 -82 4q-286 0 -286 -313v-557h-199v896q0 57 -3 128h193l4 -181q60 208 322 208h51zM490 1211v0v0zM310 0v0v0zM373 1211l172 288h212l-251 -288h-133zM490 1211v0v0z" />
    <glyph glyph-name="Rcommaaccent" unicode="&#x156;" horiz-adv-x="1366" 
d="M176 0v1472h547q243 0 366 -100q124 -100 124 -267q0 -135 -80 -233q-79 -97 -202 -123q105 -24 156 -83q51 -58 67 -172q14 -105 34 -244t63 -250h-218q-39 127 -70 411q-16 151 -82 203q-66 53 -227 53h-273v-667h-205zM381 841h324q182 0 236 62q54 63 54 158
q0 122 -69 179q-69 58 -207 58h-338v-457zM699 1583v0v0zM715 0v0v0zM0 1503v0v0zM607 -352v144h192v-142q0 -172 -192 -210v62q107 16 107 146h-107zM715 0v0v0z" />
    <glyph glyph-name="rcommaaccent" unicode="&#x157;" horiz-adv-x="797" 
d="M756 1051v-185q-31 4 -82 4q-286 0 -286 -313v-557h-199v896q0 57 -3 128h193l4 -181q60 208 322 208h51zM490 1211v0v0zM310 0v0v0zM202 -352v144h192v-142q0 -172 -192 -210v62q107 16 107 146h-107zM310 0v0v0z" />
    <glyph glyph-name="Rcaron" unicode="&#x158;" horiz-adv-x="1366" 
d="M176 0v1472h547q243 0 366 -100q124 -100 124 -267q0 -135 -80 -233q-79 -97 -202 -123q105 -24 156 -83q51 -58 67 -172q14 -105 34 -244t63 -250h-218q-39 127 -70 411q-16 151 -82 203q-66 53 -227 53h-273v-667h-205zM381 841h324q182 0 236 62q54 63 54 158
q0 122 -69 179q-69 58 -207 58h-338v-457zM699 1583v0v0zM715 0v0v0zM0 1503v0v0zM1003 1887l-224 -304h-186l-208 304h177l130 -202v0l152 202h159zM699 1583v0v0z" />
    <glyph glyph-name="rcaron" unicode="&#x159;" horiz-adv-x="797" 
d="M756 1051v-185q-31 4 -82 4q-286 0 -286 -313v-557h-199v896q0 57 -3 128h193l4 -181q60 208 322 208h51zM490 1211v0v0zM310 0v0v0zM794 1515l-224 -304h-186l-208 304h177l130 -202v0l152 202h159zM490 1211v0v0z" />
    <glyph glyph-name="Sacute" unicode="&#x15a;" horiz-adv-x="1366" 
d="M112 433h218v0q0 -290 350 -290q168 0 251 78q83 79 83 182q0 94 -59 145q-59 52 -211 92l-260 63q-190 50 -273 136t-83 239q0 195 163 310q164 115 407 115q237 0 369 -107q133 -106 133 -293v0h-218v0q-15 226 -313 226q-153 0 -238 -64t-85 -170q0 -105 67 -148
t206 -75l263 -68q176 -44 263 -138t87 -240q0 -208 -154 -333q-153 -124 -419 -124q-261 0 -404 113t-143 351v0zM673 1583v0v0zM648 0v0v0zM556 1583l172 288h212l-251 -288h-133zM673 1583v0v0z" />
    <glyph glyph-name="sacute" unicode="&#x15b;" horiz-adv-x="1024" 
d="M90 309h199v0q0 -197 230 -197q217 0 217 165q0 66 -54 96q-54 31 -229 67q-188 40 -265 109q-76 69 -76 188q0 141 110 227q110 87 284 87q194 0 297 -72q104 -72 104 -232v0h-199v0q0 165 -197 165q-200 0 -200 -147q0 -96 160 -134l113 -25q214 -50 282 -122
q69 -72 69 -180q0 -150 -111 -241q-111 -90 -335 -90q-184 0 -292 83q-107 83 -107 253v0zM527 1211v0v0zM495 0v0v0zM410 1211l172 288h212l-251 -288h-133zM527 1211v0v0z" />
    <glyph glyph-name="Scedilla" unicode="&#x15e;" horiz-adv-x="1366" 
d="M112 433h218v0q0 -290 350 -290q168 0 251 78q83 79 83 182q0 94 -59 145q-59 52 -211 92l-260 63q-190 50 -273 136t-83 239q0 195 163 310q164 115 407 115q237 0 369 -107q133 -106 133 -293v0h-218v0q-15 226 -313 226q-153 0 -238 -64t-85 -170q0 -105 67 -148
t206 -75l263 -68q176 -44 263 -138t87 -240q0 -208 -154 -333q-153 -124 -419 -124q-261 0 -404 113t-143 351v0zM673 1583v0v0zM648 0v0v0zM403 -391l41 73q52 -24 141 -24q110 0 110 86q0 82 -104 82q-51 0 -76 -20l-32 34l130 176h85l-91 -122q41 10 83 10q72 0 116 -41
q45 -40 45 -106q0 -77 -64 -132q-63 -55 -192 -55q-114 0 -192 39zM648 0v0v0z" />
    <glyph glyph-name="scedilla" unicode="&#x15f;" horiz-adv-x="1024" 
d="M90 309h199v0q0 -197 230 -197q217 0 217 165q0 66 -54 96q-54 31 -229 67q-188 40 -265 109q-76 69 -76 188q0 141 110 227q110 87 284 87q194 0 297 -72q104 -72 104 -232v0h-199v0q0 165 -197 165q-200 0 -200 -147q0 -96 160 -134l113 -25q214 -50 282 -122
q69 -72 69 -180q0 -150 -111 -241q-111 -90 -335 -90q-184 0 -292 83q-107 83 -107 253v0zM527 1211v0v0zM495 0v0v0zM250 -391l41 73q52 -24 141 -24q110 0 110 86q0 82 -104 82q-51 0 -76 -20l-32 34l130 176h85l-91 -122q41 10 83 10q72 0 116 -41q45 -40 45 -106
q0 -77 -64 -132q-63 -55 -192 -55q-114 0 -192 39zM495 0v0v0z" />
    <glyph glyph-name="Scaron" unicode="&#x160;" horiz-adv-x="1366" 
d="M112 433h218v0q0 -290 350 -290q168 0 251 78q83 79 83 182q0 94 -59 145q-59 52 -211 92l-260 63q-190 50 -273 136t-83 239q0 195 163 310q164 115 407 115q237 0 369 -107q133 -106 133 -293v0h-218v0q-15 226 -313 226q-153 0 -238 -64t-85 -170q0 -105 67 -148
t206 -75l263 -68q176 -44 263 -138t87 -240q0 -208 -154 -333q-153 -124 -419 -124q-261 0 -404 113t-143 351v0zM673 1583v0v0zM648 0v0v0zM977 1887l-224 -304h-186l-208 304h177l130 -202v0l152 202h159zM673 1583v0v0z" />
    <glyph glyph-name="scaron" unicode="&#x161;" horiz-adv-x="1024" 
d="M90 309h199v0q0 -197 230 -197q217 0 217 165q0 66 -54 96q-54 31 -229 67q-188 40 -265 109q-76 69 -76 188q0 141 110 227q110 87 284 87q194 0 297 -72q104 -72 104 -232v0h-199v0q0 165 -197 165q-200 0 -200 -147q0 -96 160 -134l113 -25q214 -50 282 -122
q69 -72 69 -180q0 -150 -111 -241q-111 -90 -335 -90q-184 0 -292 83q-107 83 -107 253v0zM527 1211v0v0zM495 0v0v0zM831 1515l-224 -304h-186l-208 304h177l130 -202v0l152 202h159zM527 1211v0v0z" />
    <glyph glyph-name="Tcommaaccent" unicode="&#x162;" horiz-adv-x="1251" 
d="M48 1472h1197v-174h-496v-1298h-205v1298h-496v174zM651 1583v0v0zM651 0v0v0zM0 1503v0v0zM543 -352v144h192v-142q0 -172 -192 -210v62q107 16 107 146h-107zM651 0v0v0z" />
    <glyph glyph-name="tcommaaccent" unicode="&#x163;" horiz-adv-x="682" 
d="M22 885v139h183v211l199 61v-272h224v-139h-224v-635q0 -125 137 -125q62 0 93 11v-148q-42 -15 -158 -15q-151 0 -211 49t-60 168v695h-183zM363 0v0v0zM255 -352v144h192v-142q0 -172 -192 -210v62q107 16 107 146h-107zM363 0v0v0z" />
    <glyph glyph-name="Tcaron" unicode="&#x164;" horiz-adv-x="1251" 
d="M48 1472h1197v-174h-496v-1298h-205v1298h-496v174zM651 1583v0v0zM651 0v0v0zM0 1503v0v0zM955 1887l-224 -304h-186l-208 304h177l130 -202v0l152 202h159zM651 1583v0v0z" />
    <glyph glyph-name="Umacron" unicode="&#x16a;" horiz-adv-x="1593" 
d="M192 1472h205v-929q0 -213 111 -307q112 -93 297 -93q189 0 292 95t103 326v908h205v-922v0q0 -271 -162 -426t-430 -155q-284 0 -453 142q-168 143 -168 421v36v904zM789 1583v0v0zM969 0v0v0zM0 1503v0v0zM491 1787h560v-108h-560v108zM789 1583v0v0z" />
    <glyph glyph-name="umacron" unicode="&#x16b;" horiz-adv-x="1251" 
d="M158 1024h199v-653q0 -144 54 -197t159 -53q130 0 211 74q81 75 81 208v621h199v-896q0 -57 3 -128h-196l-9 165q-95 -192 -326 -192q-176 0 -276 90q-99 91 -99 267v694zM615 1211v0v0zM1011 0v0v0zM0 1051v0v0zM317 1415h560v-108h-560v108zM615 1211v0v0z" />
    <glyph glyph-name="Uring" unicode="&#x16e;" horiz-adv-x="1593" 
d="M192 1472h205v-929q0 -213 111 -307q112 -93 297 -93q189 0 292 95t103 326v908h205v-922v0q0 -271 -162 -426t-430 -155q-284 0 -453 142q-168 143 -168 421v36v904zM789 1583v0v0zM969 0v0v0zM0 1503v0v0zM586 1736q0 84 58 142q59 59 143 59t142 -59q59 -58 59 -142
t-59 -143q-58 -58 -142 -58t-143 58q-58 59 -58 143zM668 1736q0 -50 34 -85q35 -34 85 -34q49 0 84 34q35 35 35 85q0 49 -35 84t-84 35q-50 0 -85 -35q-34 -35 -34 -84zM789 1583v0v0z" />
    <glyph glyph-name="uring" unicode="&#x16f;" horiz-adv-x="1251" 
d="M158 1024h199v-653q0 -144 54 -197t159 -53q130 0 211 74q81 75 81 208v621h199v-896q0 -57 3 -128h-196l-9 165q-95 -192 -326 -192q-176 0 -276 90q-99 91 -99 267v694zM615 1211v0v0zM1011 0v0v0zM0 1051v0v0zM412 1364q0 84 58 142q59 59 143 59t142 -59
q59 -58 59 -142t-59 -143q-58 -58 -142 -58t-143 58q-58 59 -58 143zM494 1364q0 -50 34 -85q35 -34 85 -34q49 0 84 34q35 35 35 85q0 49 -35 84t-84 35q-50 0 -85 -35q-34 -35 -34 -84zM615 1211v0v0z" />
    <glyph glyph-name="Uhungarumlaut" unicode="&#x170;" horiz-adv-x="1593" 
d="M192 1472h205v-929q0 -213 111 -307q112 -93 297 -93q189 0 292 95t103 326v908h205v-922v0q0 -271 -162 -426t-430 -155q-284 0 -453 142q-168 143 -168 421v36v904zM789 1583v0v0zM969 0v0v0zM0 1503v0v0zM572 1583l172 288h212l-251 -288h-133zM892 1583l172 288h212
l-251 -288h-133zM789 1583v0v0z" />
    <glyph glyph-name="uhungarumlaut" unicode="&#x171;" horiz-adv-x="1251" 
d="M158 1024h199v-653q0 -144 54 -197t159 -53q130 0 211 74q81 75 81 208v621h199v-896q0 -57 3 -128h-196l-9 165q-95 -192 -326 -192q-176 0 -276 90q-99 91 -99 267v694zM615 1211v0v0zM1011 0v0v0zM0 1051v0v0zM398 1211l172 288h212l-251 -288h-133zM718 1211l172 288
h212l-251 -288h-133zM615 1211v0v0z" />
    <glyph glyph-name="Uogonek" unicode="&#x172;" horiz-adv-x="1593" 
d="M192 1472h205v-929q0 -213 111 -307q112 -93 297 -93q189 0 292 95t103 326v908h205v-922v0q0 -271 -162 -426t-430 -155q-284 0 -453 142q-168 143 -168 421v36v904zM789 1583v0v0zM969 0v0v0zM0 1503v0v0zM930 7h82q-86 -68 -122 -111q-36 -42 -36 -94q0 -100 131 -100
q53 0 93 23v-83q-99 -51 -188 -51q-91 0 -145 42q-53 43 -53 114q0 134 238 260zM969 0v0v0z" />
    <glyph glyph-name="uogonek" unicode="&#x173;" horiz-adv-x="1251" 
d="M158 1024h199v-653q0 -144 54 -197t159 -53q130 0 211 74q81 75 81 208v621h199v-896q0 -57 3 -128h-196l-9 165q-95 -192 -326 -192q-176 0 -276 90q-99 91 -99 267v694zM615 1211v0v0zM1011 0v0v0zM0 1051v0v0zM972 7h82q-86 -68 -122 -111q-36 -42 -36 -94
q0 -100 131 -100q53 0 93 23v-83q-99 -51 -188 -51q-91 0 -145 42q-53 43 -53 114q0 134 238 260zM1011 0v0v0z" />
    <glyph glyph-name="Ydieresis" unicode="&#x178;" horiz-adv-x="1366" 
d="M16 1472h253l435 -724v0l439 724h230l-576 -897v-575h-205v575zM689 1583v0v0zM0 1503v0v0zM400 1840h189v-209h-189v209zM781 1840h189v-209h-189v209zM689 1583v0v0z" />
    <glyph glyph-name="Zacute" unicode="&#x179;" horiz-adv-x="1251" 
d="M70 0v201l861 1097v0h-839v174h1082v-201l-867 -1097v0h880v-174h-1117zM625 1583v0v0zM0 1503v0v0zM508 1583l172 288h212l-251 -288h-133zM625 1583v0v0z" />
    <glyph glyph-name="zacute" unicode="&#x17a;" horiz-adv-x="909" 
d="M62 0v196l548 689v0h-520v139h740v-164l-566 -721v0h566v-139h-768zM466 1211v0v0zM0 1051v0v0zM349 1211l172 288h212l-251 -288h-133zM466 1211v0v0z" />
    <glyph glyph-name="Zdotaccent" unicode="&#x17b;" horiz-adv-x="1251" 
d="M70 0v201l861 1097v0h-839v174h1082v-201l-867 -1097v0h880v-174h-1117zM625 1583v0v0zM0 1503v0v0zM528 1840h189v-209h-189v209zM625 1583v0v0z" />
    <glyph glyph-name="zdotaccent" unicode="&#x17c;" horiz-adv-x="909" 
d="M62 0v196l548 689v0h-520v139h740v-164l-566 -721v0h566v-139h-768zM466 1211v0v0zM0 1051v0v0zM369 1468h189v-209h-189v209zM466 1211v0v0z" />
    <glyph glyph-name="Zcaron" unicode="&#x17d;" horiz-adv-x="1251" 
d="M70 0v201l861 1097v0h-839v174h1082v-201l-867 -1097v0h880v-174h-1117zM625 1583v0v0zM0 1503v0v0zM929 1887l-224 -304h-186l-208 304h177l130 -202v0l152 202h159zM625 1583v0v0z" />
    <glyph glyph-name="zcaron" unicode="&#x17e;" horiz-adv-x="909" 
d="M62 0v196l548 689v0h-520v139h740v-164l-566 -721v0h566v-139h-768zM466 1211v0v0zM0 1051v0v0zM770 1515l-224 -304h-186l-208 304h177l130 -202v0l152 202h159zM466 1211v0v0z" />
    <glyph glyph-name="Scommaaccent" unicode="&#xf24d;" horiz-adv-x="1366" 
d="M112 433h218v0q0 -290 350 -290q168 0 251 78q83 79 83 182q0 94 -59 145q-59 52 -211 92l-260 63q-190 50 -273 136t-83 239q0 195 163 310q164 115 407 115q237 0 369 -107q133 -106 133 -293v0h-218v0q-15 226 -313 226q-153 0 -238 -64t-85 -170q0 -105 67 -148
t206 -75l263 -68q176 -44 263 -138t87 -240q0 -208 -154 -333q-153 -124 -419 -124q-261 0 -404 113t-143 351v0zM673 1583v0v0zM648 0v0v0zM540 -352v144h192v-142q0 -172 -192 -210v62q107 16 107 146h-107zM648 0v0v0z" />
    <glyph glyph-name="scommaaccent" unicode="&#xf24e;" horiz-adv-x="1024" 
d="M90 309h199v0q0 -197 230 -197q217 0 217 165q0 66 -54 96q-54 31 -229 67q-188 40 -265 109q-76 69 -76 188q0 141 110 227q110 87 284 87q194 0 297 -72q104 -72 104 -232v0h-199v0q0 165 -197 165q-200 0 -200 -147q0 -96 160 -134l113 -25q214 -50 282 -122
q69 -72 69 -180q0 -150 -111 -241q-111 -90 -335 -90q-184 0 -292 83q-107 83 -107 253v0zM527 1211v0v0zM495 0v0v0zM387 -352v144h192v-142q0 -172 -192 -210v62q107 16 107 146h-107zM495 0v0v0z" />
    <glyph glyph-name="quotedbl" unicode="&#x22;" horiz-adv-x="819" 
d="M501 1411h170l-32 -496h-106zM163 1411h170l-32 -496h-106z" />
    <glyph glyph-name="parenleft" unicode="(" horiz-adv-x="682" 
d="M391 1531q-127 -322 -186 -511q-59 -188 -59 -383q0 -238 100 -514q99 -275 134 -367h135q-91 297 -136 484q-45 188 -45 390q0 179 46 374q45 196 146 527h-135z" />
    <glyph glyph-name="colon" unicode=":" horiz-adv-x="569" 
d="M171 1039h227v-246h-227v246zM171 246h227v-246h-227v246z" />
    <glyph glyph-name="semicolon" unicode=";" horiz-adv-x="569" 
d="M96 -251l131 496h238l-231 -496h-138zM200 1039h227v-246h-227v246z" />
    <glyph glyph-name="less" unicode="&#x3c;" horiz-adv-x="1196" 
d="M1121 1014l-1040 -416v-167l1040 -416v177l-829 322v0l829 323v177z" />
    <glyph glyph-name="at" unicode="@" horiz-adv-x="2079" 
d="M1790 905q0 -242 -133 -392t-289 -150q-75 0 -122 41q-46 41 -46 104q0 26 16 63q-103 -208 -292 -208q-121 0 -196 82q-74 83 -74 218q0 187 118 335q119 149 285 149q193 0 238 -160l35 129h142l-146 -476q-14 -49 -14 -93q0 -81 93 -81q104 0 197 127q94 127 94 316
q0 239 -167 374q-167 136 -418 136q-319 0 -524 -197q-205 -196 -205 -510q0 -286 188 -470q189 -183 512 -183q151 0 299 56t263 141l50 -70q-164 -120 -317 -169q-152 -49 -298 -49q-362 0 -577 211q-214 212 -214 536q0 354 235 574q236 221 586 221q295 0 488 -166
q193 -165 193 -439zM1232 888q0 71 -42 113q-41 43 -107 43q-100 0 -183 -123q-83 -122 -83 -261q0 -194 148 -194q127 0 208 186q59 135 59 236z" />
    <glyph glyph-name="bracketleft" unicode="[" horiz-adv-x="682" 
d="M209 -254h355v108h-192v1569h192v108h-355v-1785z" />
    <glyph glyph-name="braceleft" unicode="{" horiz-adv-x="684" 
d="M0 696q164 20 218 88t54 197v108q0 234 91 331q91 98 325 116v-103q-253 -19 -253 -295v-114q0 -191 -63 -274q-62 -83 -209 -106v0q145 -23 208 -103q64 -79 64 -274v-94q0 -172 58 -241t195 -85v-103q-252 23 -334 124q-82 102 -82 337v95q0 144 -58 207
q-58 64 -214 86v103z" />
    <glyph glyph-name="braceright" unicode="}" horiz-adv-x="684" 
d="M688 587q-157 -21 -215 -85q-57 -63 -57 -205v-96q0 -254 -90 -346q-89 -92 -326 -111v103q136 16 194 84q59 69 59 240v91q0 195 63 274q63 80 209 102v0q-148 22 -210 108t-62 275v114q0 280 -253 298v103q234 -20 325 -117t91 -332v-149q0 -97 58 -164q59 -66 214 -84
v-103z" />
    <glyph glyph-name="exclamdown" unicode="&#xa1;" horiz-adv-x="797" 
d="M460 688l32 -1134v0h-231v0l32 1134h167zM485 1026v-204h-217v204h217z" />
    <glyph glyph-name="currency" unicode="&#xa4;" 
d="M78 1090l101 101l131 -130v0q113 82 257 82v0q138 0 253 -82v0l129 130l101 -101l-130 -129v0q82 -115 82 -253v0q0 -144 -82 -257v0l130 -131l-101 -101l-129 132v0q-115 -82 -253 -82v0q-142 0 -257 82v0l-131 -132l-101 101l132 131v0q-82 115 -82 257v0q0 138 82 253
v0zM282 706q0 -119 82 -201t201 -82q118 0 200 82q83 82 83 201q0 118 -83 200q-82 83 -200 83q-119 0 -201 -83q-82 -82 -82 -200z" />
    <glyph glyph-name="copyright" unicode="&#xa9;" horiz-adv-x="1638" 
d="M844 -27q-320 0 -550 228t-230 546q0 320 226 546q227 227 548 227q320 0 546 -227q227 -227 227 -547q0 -318 -225 -546q-225 -227 -542 -227zM155 752q0 -280 197 -484q198 -204 491 -204q282 0 481 206q196 199 196 482q0 282 -203 479q-203 198 -480 198
q-280 0 -481 -199q-201 -198 -201 -478zM1136 940h-120q-19 158 -174 158q-231 0 -231 -372q0 -344 232 -344q149 0 170 142h125q-6 -94 -81 -163q-87 -77 -225 -77q-179 0 -267 140q-74 119 -74 305q0 204 82 328q95 139 271 139q151 0 232 -95q60 -70 60 -161z" />
    <glyph glyph-name="guillemotleft" unicode="&#xab;" 
d="M584 501l221 -400h163l-192 400l192 400h-163zM184 501l221 -400h163l-192 400l192 400h-163z" />
    <glyph glyph-name="logicalnot" unicode="&#xac;" horiz-adv-x="1196" 
d="M80 808h1040v-578h-162v416h-878v162z" />
    <glyph glyph-name="hyphen" unicode="&#xad;" horiz-adv-x="682" 
d="M80 615h512v-157h-512v157z" />
    <glyph glyph-name="registered" unicode="&#xae;" horiz-adv-x="1638" 
d="M844 -27q-320 0 -550 228t-230 546q0 320 226 546q227 227 548 227q320 0 546 -227q227 -227 227 -547q0 -318 -225 -546q-225 -227 -542 -227zM155 752q0 -280 197 -484q198 -204 491 -204q282 0 479 202q198 203 198 486q0 282 -203 479q-203 198 -480 198
q-280 0 -481 -199q-201 -198 -201 -478zM555 330v828h299q282 0 282 -219q0 -72 -49 -124q-48 -51 -107 -64v0q59 -15 87 -45q29 -29 39 -99q10 -77 20 -151q11 -74 32 -126h-120q-15 41 -47 255q-13 78 -53 99q-40 22 -140 22h-125v-376h-118zM673 1060v-256h203
q142 0 142 127q0 129 -145 129h-200z" />
    <glyph glyph-name="mu" unicode="&#xb5;" horiz-adv-x="1251" 
d="M1037 1024v-896v-128h-152v142q-95 -169 -285 -169q-150 0 -251 129v-534h-167v1456h167v-519q0 -245 80 -318q80 -72 174 -72q107 0 187 83q80 84 80 318v508h167z" />
    <glyph glyph-name="paragraph" unicode="&#xb6;" horiz-adv-x="1100" 
d="M400 -352v880q-199 14 -308 138q-108 124 -108 323q0 215 138 349q139 134 389 134h561v-132h-110v-1692h-161v1692h-240v-1692h-161z" />
    <glyph glyph-name="onequarter" unicode="&#xbc;" horiz-adv-x="1708" 
d="M58 1307q132 64 216 133h119v-864h-127v731q-94 -72 -208 -123v123zM291 -61l878 1528h130l-874 -1528h-134zM963 333l401 534h143v-586h135v-98h-135v-189h-127v189h-417v150zM1064 281v0h316v447v0z" />
    <glyph glyph-name="onehalf" unicode="&#xbd;" horiz-adv-x="1708" 
d="M-3 1307q132 64 216 133h119v-864h-127v731q-94 -72 -208 -123v123zM230 -59l878 1528h130l-874 -1528h-134zM1013 107l234 221q207 196 207 303q0 69 -33 106t-111 37q-148 0 -148 -142v0h-135v0q0 106 75 173q76 67 206 67q129 0 205 -68q76 -67 76 -185
q0 -93 -95 -200q-94 -107 -186 -192l-146 -135v0h429v-98h-578v113z" />
    <glyph glyph-name="threequarters" unicode="&#xbe;" horiz-adv-x="1708" 
d="M83 789h135v0q0 -142 171 -142q77 0 129 41t52 117q0 163 -214 163h-49v98h30q101 0 160 35q59 36 59 117q0 71 -41 104q-40 34 -117 34q-154 0 -166 -142h-133q0 105 79 172q79 68 210 68q144 0 223 -66q80 -66 80 -170q0 -75 -50 -130q-49 -55 -135 -71q87 -13 143 -69
q56 -55 56 -141q0 -109 -90 -184q-89 -74 -219 -74q-156 0 -235 66q-78 67 -78 174v0zM414 -59l878 1528h130l-874 -1528h-134zM1047 333l401 534h143v-586h135v-98h-135v-189h-127v189h-417v150zM1148 281v0h316v447v0z" />
    <glyph glyph-name="questiondown" unicode="&#xbf;" horiz-adv-x="1024" 
d="M701 824h-209v204h209v-204zM908 -433q-129 -42 -288 -42q-243 0 -361 105q-119 104 -119 261q0 104 44 175t171 203l122 126q36 40 36 85v216h170v-232q0 -74 -61 -144l-97 -104q-88 -98 -130 -162q-42 -65 -42 -142q0 -214 269 -214q155 0 286 58v-189z" />
    <glyph glyph-name="dcaron" unicode="&#x10f;" horiz-adv-x="1559" 
d="M893 875v597h199v-1305q0 -73 9 -167h-193l-9 156q-37 -83 -135 -133q-97 -50 -211 -50q-198 0 -321 135q-123 136 -123 379q0 262 126 413q127 151 340 151q232 0 318 -176zM893 518q0 192 -81 293t-221 101q-132 0 -208 -101q-75 -101 -75 -305q0 -394 279 -394
q306 0 306 406zM1199 1276v196h186v-193q0 -237 -186 -291v88q101 20 101 200h-101z" />
    <glyph glyph-name="Dcroat" unicode="&#x110;" horiz-adv-x="1479" 
d="M179 877v595h507q361 0 533 -206q173 -206 173 -547q0 -315 -158 -517t-557 -202h-498v752h-144v125h144zM384 877h400v-125h-400v-578h253q291 0 414 152t123 397q0 265 -120 417q-119 153 -374 158h-24h-272v-421z" />
    <glyph glyph-name="Lcaron" unicode="&#x13d;" 
d="M192 1472h205v-1298h688v-174h-893v1472zM304 1583v0v0zM663 0v0v0zM0 1503v0v0zM642 1276v196h186v-193q0 -237 -186 -291v88q101 20 101 200h-101z" />
    <glyph glyph-name="lcaron" unicode="&#x13e;" horiz-adv-x="877" 
d="M183 0v1472h199v-1472h-199zM289 1632v0v0zM289 0v0v0zM482 1276v196h186v-193q0 -237 -186 -291v88q101 20 101 200h-101z" />
    <glyph glyph-name="tcaron" unicode="&#x165;" horiz-adv-x="1092" 
d="M22 885v139h183v211l199 61v-272h224v-139h-224v-635q0 -125 137 -125q62 0 93 11v-148q-42 -15 -158 -15q-151 0 -211 49t-60 168v695h-183zM363 0v0v0zM515 1417v196h186v-193q0 -237 -186 -291v88q101 20 101 200h-101z" />
    <glyph glyph-name="quoteleft" unicode="&#x2018;" horiz-adv-x="569" 
d="M465 1472l-130 -496h-238l230 496h138z" />
    <glyph glyph-name="quotesinglbase" unicode="&#x201a;" horiz-adv-x="569" 
d="M98 -275l130 496h238l-230 -496h-138z" />
    <glyph glyph-name="quotedblleft" unicode="&#x201c;" 
d="M931 1472l-130 -496h-238l230 496h138zM547 1472l-130 -496h-238l230 496h138z" />
    <glyph glyph-name="quotedblbase" unicode="&#x201e;" 
d="M206 -277l130 496h238l-230 -496h-138zM590 -277l130 496h238l-230 -496h-138z" />
    <glyph glyph-name="guilsinglleft" unicode="&#x2039;" horiz-adv-x="569" 
d="M107 501l221 -400h163l-192 400l192 400h-163z" />
    <glyph glyph-name="trademark" unicode="&#x2122;" horiz-adv-x="2048" 
d="M400 736v650h-211v86h513v-86h-211v-650h-91zM834 736v736h171l204 -607v0l195 607h161v-736h-94v661l-226 -661h-91l-226 658v-658h-94z" />
    <glyph glyph-name="periodcentered" unicode="&#xb7;" horiz-adv-x="569" 
d="M165 475v245h227v-245h-227z" />
    <glyph glyph-name="periodcentered" unicode="&#x2219;" horiz-adv-x="569" 
d="M165 475v245h227v-245h-227z" />
    <glyph glyph-name="lessequal" unicode="&#x2264;" horiz-adv-x="1196" 
d="M81 129v-160h1040v160h-1040zM81 792v-167l1040 -416v177l-829 323l829 322v177z" />
    <glyph glyph-name="fi" unicode="&#xfb01;" horiz-adv-x="1251" 
d="M44 1024h192v161q0 164 77 237q78 73 241 73q77 0 153 -14v-153q-11 2 -50 3q-38 1 -56 1q-97 0 -132 -30q-34 -29 -34 -100v-178h240v-139h-240v-885h-199v885h-192v139zM860 1024h199v-1024h-199v1024zM838 1475h243v-211h-243v211z" />
    <glyph glyph-name="fl" unicode="&#xfb02;" horiz-adv-x="1251" 
d="M44 1024h192v161q0 164 77 237q78 73 241 73q81 0 153 -14v-153q-11 2 -50 3q-38 1 -56 1q-97 0 -132 -30q-34 -29 -34 -100v-178h240v-139h-240v-885h-199v885h-192v139zM860 0v1472h199v-1472h-199z" />
  </font>
</defs>
</svg>
