<?xml version="1.0" standalone="no"?>
<!DOCTYPE svg PUBLIC "-//W3C//DTD SVG 1.1//EN" "http://www.w3.org/Graphics/SVG/1.1/DTD/svg11.dtd" >
<svg xmlns="http://www.w3.org/2000/svg" xmlns:xlink="http://www.w3.org/1999/xlink" version="1.1">
<metadata>
Created by FontForge 20190801 at Thu Jan 19 13:18:21 2017
 By root
Copyright 2016 The Nunito Project Authors (contact@sansoxygen.com)
</metadata>
<defs>
<font id="NunitoSans-ExtraLight" horiz-adv-x="600" >
  <font-face 
    font-family="Nunito Sans ExtraLight"
    font-weight="275"
    font-stretch="normal"
    units-per-em="1000"
    panose-1="0 0 3 0 0 0 0 0 0 0"
    ascent="800"
    descent="-200"
    x-height="484"
    cap-height="705"
    bbox="-314 -294 1251 1074"
    underline-thickness="50"
    underline-position="-100"
    unicode-range="U+000D-FB02"
  />
<missing-glyph horiz-adv-x="443" 
d="M363 705v-885h-281v885h281zM295 646h-146v-29h57v-33h-58v-29h147v29h-59v33h59v29zM236 532h-88v-92h147v30h-59v62zM206 501v-31h-29v31h29zM295 416h-147v-30h58v-32h-58v-30h88v62h59v30zM295 363h-29v-59h-118v-30h147v89zM295 255h-89v-50h30v20h30v-41h-89v71
h-29v-100h147v100zM295 101h-147v-100h147v100zM266 72v-41h-89v41h89zM295 -19h-147v-29h62l-62 -42v-29h147v29h-91l62 42h29v29z" />
    <glyph glyph-name="fi" unicode="fi" horiz-adv-x="512" 
d="M147 484h280v-484h-42v448h-238v-448h-42v448h-97v36h97v31q0 91 43 138t132 52l32 2l5 -37l-46 -3q-63 -5 -93.5 -42t-30.5 -110v-31zM373 683h65v-65h-65v65z" />
    <glyph glyph-name="fl" unicode="fl" horiz-adv-x="514" 
d="M147 484h146v-36h-146v-448h-42v448h-97v36h97v31q0 91 43.5 138t131.5 52l31 2l5 -37l-46 -3q-63 -4 -93 -42t-30 -110v-31zM387 0v705h42v-705h-42z" />
    <glyph glyph-name=".notdef" horiz-adv-x="443" 
d="M363 705v-885h-281v885h281zM295 646h-146v-29h57v-33h-58v-29h147v29h-59v33h59v29zM236 532h-88v-92h147v30h-59v62zM206 501v-31h-29v31h29zM295 416h-147v-30h58v-32h-58v-30h88v62h59v30zM295 363h-29v-59h-118v-30h147v89zM295 255h-89v-50h30v20h30v-41h-89v71
h-29v-100h147v100zM295 101h-147v-100h147v100zM266 72v-41h-89v41h89zM295 -19h-147v-29h62l-62 -42v-29h147v29h-91l62 42h29v29z" />
    <glyph glyph-name="NULL" horiz-adv-x="0" 
 />
    <glyph glyph-name="NULL" horiz-adv-x="0" 
 />
    <glyph glyph-name="nonmarkingreturn" unicode="&#xd;" horiz-adv-x="246" 
 />
    <glyph glyph-name="space" unicode=" " horiz-adv-x="246" 
 />
    <glyph glyph-name="A" unicode="A" horiz-adv-x="714" 
d="M636 0l-84 195h-391l-84 -195h-43l303 705h40l303 -705h-44zM178 235h357l-178 416z" />
    <glyph glyph-name="Aacute" unicode="&#xc1;" horiz-adv-x="714" 
d="M636 0l-84 195h-391l-84 -195h-43l303 705h40l303 -705h-44zM178 235h357l-178 416zM375 765h-36l100 149h60z" />
    <glyph glyph-name="Abreve" unicode="&#x102;" horiz-adv-x="714" 
d="M636 0l-84 195h-391l-84 -195h-43l303 705h40l303 -705h-44zM178 235h357l-178 416zM265.5 802.5q-40.5 24.5 -62.5 80.5l40 18q26 -47 52 -64.5t62 -17.5t62 17.5t52 64.5l40 -18q-43 -105 -154 -105q-51 0 -91.5 24.5z" />
    <glyph glyph-name="uni1EAE" unicode="&#x1eae;" horiz-adv-x="714" 
d="M636 0l-84 195h-391l-84 -195h-43l303 705h40l303 -705h-44zM178 235h357l-178 416zM374 865h-34l99 142h61zM265.5 784.5q-40.5 24.5 -62.5 80.5l42 18q26 -47 51 -64t61 -17t61 17t51 64l42 -18q-43 -105 -154 -105q-51 0 -91.5 24.5z" />
    <glyph glyph-name="uni1EB6" unicode="&#x1eb6;" horiz-adv-x="714" 
d="M636 0l-84 195h-391l-84 -195h-43l303 705h40l303 -705h-44zM178 235h357l-178 416zM324 -109h66v-64h-66v64zM265.5 802.5q-40.5 24.5 -62.5 80.5l40 18q26 -47 52 -64.5t62 -17.5t62 17.5t52 64.5l40 -18q-43 -105 -154 -105q-51 0 -91.5 24.5z" />
    <glyph glyph-name="uni1EB0" unicode="&#x1eb0;" horiz-adv-x="714" 
d="M636 0l-84 195h-391l-84 -195h-43l303 705h40l303 -705h-44zM178 235h357l-178 416zM340 865l-126 142h61l99 -142h-34zM203 865l42 18q26 -47 51 -64t61 -17t61 17t51 64l42 -18q-22 -56 -62.5 -80.5t-91.5 -24.5q-111 0 -154 105z" />
    <glyph glyph-name="uni1EB2" unicode="&#x1eb2;" horiz-adv-x="714" 
d="M636 0l-84 195h-391l-84 -195h-43l303 705h40l303 -705h-44zM178 235h357l-178 416zM378 865h-41v16q0 17 10 25.5t30 18.5q14 6 21 11t7 13q0 10 -12 15.5t-33 5.5q-31 0 -63 -12l-12 37q35 17 74 17q44 0 69 -17.5t25 -46.5q0 -17 -10.5 -26t-32.5 -20q-16 -7 -24 -13
t-8 -15v-9zM203 865l42 18q26 -47 51 -64t61 -17t61 17t51 64l42 -18q-22 -56 -62.5 -80.5t-91.5 -24.5q-111 0 -154 105z" />
    <glyph glyph-name="uni1EB4" unicode="&#x1eb4;" horiz-adv-x="714" 
d="M636 0l-84 195h-391l-84 -195h-43l303 705h40l303 -705h-44zM178 235h357l-178 416zM224 989.5q21 27.5 58 27.5q22 0 41.5 -9t46.5 -27q39 -26 58 -26q23 0 36.5 18t12.5 41h34q0 -47 -21 -74.5t-58 -27.5q-22 0 -41.5 9t-46.5 27q-39 26 -58 26q-23 0 -36.5 -18
t-12.5 -41h-34q0 47 21 74.5zM203 865l42 18q26 -47 51 -64t61 -17t61 17t51 64l42 -18q-22 -56 -62.5 -80.5t-91.5 -24.5q-111 0 -154 105z" />
    <glyph glyph-name="Acircumflex" unicode="&#xc2;" horiz-adv-x="714" 
d="M636 0l-84 195h-391l-84 -195h-43l303 705h40l303 -705h-44zM178 235h357l-178 416zM278 765h-51l112 149h36l112 -149h-51l-79 113z" />
    <glyph glyph-name="uni1EA4" unicode="&#x1ea4;" horiz-adv-x="714" 
d="M636 0l-84 195h-391l-84 -195h-43l303 705h40l303 -705h-44zM178 235h357l-178 416zM472 865h-36l103 142h62zM278 765h-51l112 151h36l112 -151h-51l-79 115z" />
    <glyph glyph-name="uni1EAC" unicode="&#x1eac;" horiz-adv-x="714" 
d="M636 0l-84 195h-391l-84 -195h-43l303 705h40l303 -705h-44zM178 235h357l-178 416zM324 -109h66v-64h-66v64zM278 765h-51l112 149h36l112 -149h-51l-79 113z" />
    <glyph glyph-name="uni1EA6" unicode="&#x1ea6;" horiz-adv-x="714" 
d="M636 0l-84 195h-391l-84 -195h-43l303 705h40l303 -705h-44zM178 235h357l-178 416zM479 865l-106 142h62l80 -142h-36zM278 765h-51l112 151h36l112 -151h-51l-79 115z" />
    <glyph glyph-name="uni1EA8" unicode="&#x1ea8;" horiz-adv-x="714" 
d="M636 0l-84 195h-391l-84 -195h-43l303 705h40l303 -705h-44zM178 235h357l-178 416zM477 865h-42v16q0 17 10 25.5t31 18.5q14 6 21 11t7 13q0 10 -12.5 15.5t-33.5 5.5q-30 0 -62 -12l-12 37q35 17 73 17q45 0 70 -17.5t25 -46.5q0 -17 -10.5 -26t-32.5 -20
q-16 -7 -24 -13t-8 -15v-9zM278 765h-51l112 151h36l112 -151h-51l-79 115z" />
    <glyph glyph-name="uni1EAA" unicode="&#x1eaa;" horiz-adv-x="714" 
d="M636 0l-84 195h-391l-84 -195h-43l303 705h40l303 -705h-44zM178 235h357l-178 416zM224 998.5q21 26.5 58 26.5q22 0 41 -7t47 -21q20 -10 33.5 -15.5t24.5 -5.5q23 0 36.5 17t12.5 36h34q0 -43 -21 -69t-58 -26q-22 0 -41 7t-47 21q-15 8 -31 14t-27 6
q-23 0 -36.5 -16.5t-12.5 -35.5h-34q0 42 21 68.5zM278 765h-51l112 151h36l112 -151h-51l-79 115z" />
    <glyph glyph-name="uni0200" unicode="&#x200;" horiz-adv-x="714" 
d="M636 0l-84 195h-391l-84 -195h-43l303 705h40l303 -705h-44zM178 235h357l-178 416zM289 765l-96 149h53l70 -149h-27zM398 765l-97 149h54l70 -149h-27z" />
    <glyph glyph-name="Adieresis" unicode="&#xc4;" horiz-adv-x="714" 
d="M636 0l-84 195h-391l-84 -195h-43l303 705h40l303 -705h-44zM178 235h357l-178 416zM246 871h61v-60h-61v60zM407 871h61v-60h-61v60z" />
    <glyph glyph-name="uni1EA0" unicode="&#x1ea0;" horiz-adv-x="714" 
d="M636 0l-84 195h-391l-84 -195h-43l303 705h40l303 -705h-44zM178 235h357l-178 416zM324 -109h66v-64h-66v64z" />
    <glyph glyph-name="Agrave" unicode="&#xc0;" horiz-adv-x="714" 
d="M636 0l-84 195h-391l-84 -195h-43l303 705h40l303 -705h-44zM178 235h357l-178 416zM339 765l-124 149h60l100 -149h-36z" />
    <glyph glyph-name="uni1EA2" unicode="&#x1ea2;" horiz-adv-x="714" 
d="M636 0l-84 195h-391l-84 -195h-43l303 705h40l303 -705h-44zM178 235h357l-178 416zM378 765h-41v15q0 18 10.5 28t30.5 22q14 8 20.5 13.5t6.5 13.5q0 10 -12 15t-33 5q-31 0 -63 -12l-12 38q36 16 74 16q45 0 69.5 -17t24.5 -47q0 -19 -11.5 -29.5t-33.5 -22.5
q-16 -8 -23 -14t-7 -15v-9z" />
    <glyph glyph-name="uni0202" unicode="&#x202;" horiz-adv-x="714" 
d="M636 0l-84 195h-391l-84 -195h-43l303 705h40l303 -705h-44zM178 235h357l-178 416zM448.5 877.5q40.5 -24.5 62.5 -80.5l-40 -17q-26 47 -52 64t-62 17t-62 -17t-52 -64l-40 17q43 105 154 105q51 0 91.5 -24.5z" />
    <glyph glyph-name="Amacron" unicode="&#x100;" horiz-adv-x="714" 
d="M636 0l-84 195h-391l-84 -195h-43l303 705h40l303 -705h-44zM178 235h357l-178 416zM211 820v42h292v-42h-292z" />
    <glyph glyph-name="Aogonek" unicode="&#x104;" horiz-adv-x="714" 
d="M729 -167q-32 -23 -78 -23q-50 0 -80.5 28.5t-30.5 73.5q0 39 21.5 69.5t62.5 46.5l-72 167h-391l-84 -195h-43l303 705h40l303 -705h-2q-47 0 -70.5 -24t-23.5 -60q0 -32 19 -50t50 -18q27 0 60 19zM178 235h357l-178 416z" />
    <glyph glyph-name="Aring" unicode="&#xc5;" horiz-adv-x="714" 
d="M552 195h-391l-84 -195h-43l293 681q-30 9 -48.5 33.5t-18.5 55.5q0 40 28.5 67.5t68.5 27.5t68 -27.5t28 -67.5q0 -31 -18.5 -55.5t-47.5 -33.5l293 -681h-44zM320.5 732.5q14.5 -15.5 36.5 -15.5t36.5 15.5t14.5 37.5q0 23 -14.5 38t-36.5 15t-36.5 -15t-14.5 -38
q0 -22 14.5 -37.5zM178 235h357l-178 416z" />
    <glyph glyph-name="Aringacute" unicode="&#x1fa;" horiz-adv-x="714" 
d="M552 195h-391l-84 -195h-43l293 681q-30 9 -48.5 33.5t-18.5 55.5q0 40 28.5 67.5t68.5 27.5q32 0 55 -17l89 90h64l-130 -112q18 -26 18 -56q0 -31 -18.5 -55.5t-47.5 -33.5l293 -681h-44zM320.5 732.5q14.5 -15.5 36.5 -15.5t36.5 15.5t14.5 37.5q0 23 -14.5 38
t-36.5 15t-36.5 -15t-14.5 -38q0 -22 14.5 -37.5zM178 235h357l-178 416z" />
    <glyph glyph-name="Atilde" unicode="&#xc3;" horiz-adv-x="714" 
d="M636 0l-84 195h-391l-84 -195h-43l303 705h40l303 -705h-44zM178 235h357l-178 416zM224 864.5q21 26.5 58 26.5q22 0 42 -9t46 -26q20 -12 33.5 -18.5t24.5 -6.5q23 0 36.5 17t12.5 40h34q0 -44 -21 -70.5t-58 -26.5q-22 0 -42 9t-46 26q-20 12 -33.5 18.5t-24.5 6.5
q-23 0 -36.5 -17t-12.5 -40h-34q0 44 21 70.5z" />
    <glyph glyph-name="AE" unicode="&#xc6;" horiz-adv-x="986" 
d="M930 665h-452l61 -288h371v-39h-363l63 -298h320v-40h-351l-41 195h-364l-116 -195h-44l420 705h496v-40zM197 235h333l-87 414z" />
    <glyph glyph-name="AEacute" unicode="&#x1fc;" horiz-adv-x="986" 
d="M930 665h-452l61 -288h371v-39h-363l63 -298h320v-40h-351l-41 195h-364l-116 -195h-44l420 705h496v-40zM197 235h333l-87 414zM513 765h-36l100 149h60z" />
    <glyph glyph-name="B" unicode="B" horiz-adv-x="665" 
d="M561.5 301.5q33.5 -44.5 33.5 -110.5q0 -94 -59 -142.5t-169 -48.5h-271v705h260q107 0 165 -47.5t58 -137.5q0 -58 -29.5 -98.5t-82.5 -60.5q61 -15 94.5 -59.5zM138 378h213q90 0 137 38t47 110q0 140 -184 140h-213v-288zM505.5 75q45.5 36 45.5 111t-46.5 113.5
t-138.5 38.5h-228v-299h228q94 0 139.5 36z" />
    <glyph glyph-name="C" unicode="C" horiz-adv-x="677" 
d="M213.5 35q-70.5 43 -108.5 124.5t-38 193.5t38 193t108.5 124t167.5 43q148 0 240 -95l-21 -35q-52 48 -103.5 68.5t-116.5 20.5q-128 0 -198.5 -84t-70.5 -235q0 -152 70.5 -236t198.5 -84q65 0 116.5 20.5t103.5 68.5l21 -35q-92 -95 -240 -95q-97 0 -167.5 43z" />
    <glyph glyph-name="Cacute" unicode="&#x106;" horiz-adv-x="677" 
d="M213.5 35q-70.5 43 -108.5 124.5t-38 193.5t38 193t108.5 124t167.5 43q148 0 240 -95l-21 -35q-52 48 -103.5 68.5t-116.5 20.5q-128 0 -198.5 -84t-70.5 -235q0 -152 70.5 -236t198.5 -84q65 0 116.5 20.5t103.5 68.5l21 -35q-92 -95 -240 -95q-97 0 -167.5 43z
M400 765h-36l100 149h60z" />
    <glyph glyph-name="Ccaron" unicode="&#x10c;" horiz-adv-x="677" 
d="M213.5 35q-70.5 43 -108.5 124.5t-38 193.5t38 193t108.5 124t167.5 43q148 0 240 -95l-21 -35q-52 48 -103.5 68.5t-116.5 20.5q-128 0 -198.5 -84t-70.5 -235q0 -152 70.5 -236t198.5 -84q65 0 116.5 20.5t103.5 68.5l21 -35q-92 -95 -240 -95q-97 0 -167.5 43z
M461 914h51l-112 -149h-36l-112 149h51l79 -113z" />
    <glyph glyph-name="Ccedilla" unicode="&#xc7;" horiz-adv-x="677" 
d="M496.5 53.5q51.5 20.5 103.5 68.5l21 -35q-89 -92 -229 -95l-3 -37q12 4 30 4q29 0 50.5 -17t21.5 -52t-28 -57.5t-77 -22.5q-21 0 -44.5 4.5t-40.5 14.5l14 34q32 -14 73 -14q30 0 45.5 11t15.5 30q0 15 -9.5 23t-27.5 8q-21 0 -50 -11l-19 14l7 69q-133 11 -208 105.5
t-75 254.5q0 112 38 193t108.5 124t167.5 43q148 0 240 -95l-21 -35q-52 48 -103.5 68.5t-116.5 20.5q-128 0 -198.5 -84t-70.5 -235q0 -152 70.5 -236t198.5 -84q65 0 116.5 20.5z" />
    <glyph glyph-name="uni1E08" unicode="&#x1e08;" horiz-adv-x="677" 
d="M524 914l-124 -149h-36l100 149h60zM496.5 53.5q51.5 20.5 103.5 68.5l21 -35q-89 -92 -229 -95l-3 -37q12 4 30 4q29 0 50.5 -17t21.5 -52t-28 -57.5t-77 -22.5q-21 0 -44.5 4.5t-40.5 14.5l14 34q32 -14 73 -14q30 0 45.5 11t15.5 30q0 15 -9.5 23t-27.5 8
q-21 0 -50 -11l-19 14l7 69q-133 11 -208 105.5t-75 254.5q0 112 38 193t108.5 124t167.5 43q148 0 240 -95l-21 -35q-52 48 -103.5 68.5t-116.5 20.5q-128 0 -198.5 -84t-70.5 -235q0 -152 70.5 -236t198.5 -84q65 0 116.5 20.5z" />
    <glyph glyph-name="Ccircumflex" unicode="&#x108;" horiz-adv-x="677" 
d="M213.5 35q-70.5 43 -108.5 124.5t-38 193.5t38 193t108.5 124t167.5 43q148 0 240 -95l-21 -35q-52 48 -103.5 68.5t-116.5 20.5q-128 0 -198.5 -84t-70.5 -235q0 -152 70.5 -236t198.5 -84q65 0 116.5 20.5t103.5 68.5l21 -35q-92 -95 -240 -95q-97 0 -167.5 43z
M303 765h-51l112 149h36l112 -149h-51l-79 113z" />
    <glyph glyph-name="Cdotaccent" unicode="&#x10a;" horiz-adv-x="677" 
d="M213.5 35q-70.5 43 -108.5 124.5t-38 193.5t38 193t108.5 124t167.5 43q148 0 240 -95l-21 -35q-52 48 -103.5 68.5t-116.5 20.5q-128 0 -198.5 -84t-70.5 -235q0 -152 70.5 -236t198.5 -84q65 0 116.5 20.5t103.5 68.5l21 -35q-92 -95 -240 -95q-97 0 -167.5 43z
M350 872h64v-63h-64v63z" />
    <glyph glyph-name="D" unicode="D" horiz-adv-x="725" 
d="M96 705h217q166 0 255.5 -91t89.5 -261q0 -169 -90 -261t-255 -92h-217v705zM312 38q149 0 225 79.5t76 235.5t-75.5 235t-225.5 79h-175v-629h175z" />
    <glyph glyph-name="uni01C4" unicode="&#x1c4;" horiz-adv-x="1289" 
d="M96 705h217q166 0 255.5 -91t89.5 -261q0 -169 -90 -261t-255 -92h-217v705zM312 38q149 0 225 79.5t76 235.5t-75.5 235t-225.5 79h-175v-629h175zM1251 39v-39h-475l-1 -2v2h-23v31l439 635h-439v39h466l1 2v-2h22v-31l-438 -635h448zM1077 914h51l-112 -149h-36
l-112 149h51l79 -113z" />
    <glyph glyph-name="Eth" unicode="&#xd0;" horiz-adv-x="729" 
d="M573 614q89 -91 89 -261q0 -169 -90 -261t-255 -92h-217v340h-96v37h96v328h217q167 0 256 -91zM541 117.5q76 79.5 76 235.5t-75.5 235t-225.5 79h-175v-290h197v-37h-197v-302h175q149 0 225 79.5z" />
    <glyph glyph-name="Dcaron" unicode="&#x10e;" horiz-adv-x="725" 
d="M96 705h217q166 0 255.5 -91t89.5 -261q0 -169 -90 -261t-255 -92h-217v705zM312 38q149 0 225 79.5t76 235.5t-75.5 235t-225.5 79h-175v-629h175zM441 914h51l-112 -149h-36l-112 149h51l79 -113z" />
    <glyph glyph-name="Dcroat" unicode="&#x110;" horiz-adv-x="729" 
d="M573 614q89 -91 89 -261q0 -169 -90 -261t-255 -92h-217v340h-96v37h96v328h217q167 0 256 -91zM541 117.5q76 79.5 76 235.5t-75.5 235t-225.5 79h-175v-290h197v-37h-197v-302h175q149 0 225 79.5z" />
    <glyph glyph-name="uni1E0C" unicode="&#x1e0c;" horiz-adv-x="725" 
d="M96 705h217q166 0 255.5 -91t89.5 -261q0 -169 -90 -261t-255 -92h-217v705zM312 38q149 0 225 79.5t76 235.5t-75.5 235t-225.5 79h-175v-629h175zM330 -109h66v-64h-66v64z" />
    <glyph glyph-name="uni1E0E" unicode="&#x1e0e;" horiz-adv-x="725" 
d="M96 705h217q166 0 255.5 -91t89.5 -261q0 -169 -90 -261t-255 -92h-217v705zM312 38q149 0 225 79.5t76 235.5t-75.5 235t-225.5 79h-175v-629h175zM217 -162v43h292v-43h-292z" />
    <glyph glyph-name="uni01C5" unicode="&#x1c5;" horiz-adv-x="1221" 
d="M96 705h217q166 0 255.5 -91t89.5 -261q0 -169 -90 -261t-255 -92h-217v705zM312 38q149 0 225 79.5t76 235.5t-75.5 235t-225.5 79h-175v-629h175zM832 37h343v-37h-401v29l336 419h-321v36h374v-34zM1054 749h51l-111 -200h-38l-111 200h51l79 -158z" />
    <glyph glyph-name="E" unicode="E" horiz-adv-x="576" 
d="M96 0v705h424v-39h-382v-289h362v-39h-362v-299h382v-39h-424z" />
    <glyph glyph-name="Eacute" unicode="&#xc9;" horiz-adv-x="576" 
d="M96 0v705h424v-39h-382v-289h362v-39h-362v-299h382v-39h-424zM338 765h-36l100 149h60z" />
    <glyph glyph-name="Ebreve" unicode="&#x114;" horiz-adv-x="576" 
d="M96 0v705h424v-39h-382v-289h362v-39h-362v-299h382v-39h-424zM228.5 802.5q-40.5 24.5 -62.5 80.5l40 18q26 -47 52 -64.5t62 -17.5t62 17.5t52 64.5l40 -18q-43 -105 -154 -105q-51 0 -91.5 24.5z" />
    <glyph glyph-name="Ecaron" unicode="&#x11a;" horiz-adv-x="576" 
d="M96 0v705h424v-39h-382v-289h362v-39h-362v-299h382v-39h-424zM399 914h51l-112 -149h-36l-112 149h51l79 -113z" />
    <glyph glyph-name="uni0228" unicode="&#x228;" horiz-adv-x="576" 
d="M138 666v-289h362v-39h-362v-299h382v-39h-187l-4 -45q12 4 30 4q29 0 50.5 -17t21.5 -52t-28 -57.5t-77 -22.5q-21 0 -44.5 4.5t-40.5 14.5l14 34q32 -14 73 -14q30 0 45.5 11t15.5 30q0 15 -9.5 23t-27.5 8q-21 0 -50 -11l-19 14l8 76h-195v705h424v-39h-382z" />
    <glyph glyph-name="uni1E1C" unicode="&#x1e1c;" horiz-adv-x="576" 
d="M228.5 802.5q-40.5 24.5 -62.5 80.5l40 18q26 -47 52 -64.5t62 -17.5t62 17.5t52 64.5l40 -18q-43 -105 -154 -105q-51 0 -91.5 24.5zM138 666v-289h362v-39h-362v-299h382v-39h-187l-4 -45q12 4 30 4q29 0 50.5 -17t21.5 -52t-28 -57.5t-77 -22.5q-21 0 -44.5 4.5
t-40.5 14.5l14 34q32 -14 73 -14q30 0 45.5 11t15.5 30q0 15 -9.5 23t-27.5 8q-21 0 -50 -11l-19 14l8 76h-195v705h424v-39h-382z" />
    <glyph glyph-name="Ecircumflex" unicode="&#xca;" horiz-adv-x="576" 
d="M96 0v705h424v-39h-382v-289h362v-39h-362v-299h382v-39h-424zM241 765h-51l112 149h36l112 -149h-51l-79 113z" />
    <glyph glyph-name="uni1EBE" unicode="&#x1ebe;" horiz-adv-x="576" 
d="M96 0v705h424v-39h-382v-289h362v-39h-362v-299h382v-39h-424zM435 865h-36l103 142h62zM241 765h-51l112 151h36l112 -151h-51l-79 115z" />
    <glyph glyph-name="uni1EC6" unicode="&#x1ec6;" horiz-adv-x="576" 
d="M96 0v705h424v-39h-382v-289h362v-39h-362v-299h382v-39h-424zM287 -109h66v-64h-66v64zM241 765h-51l112 149h36l112 -149h-51l-79 113z" />
    <glyph glyph-name="uni1EC0" unicode="&#x1ec0;" horiz-adv-x="576" 
d="M96 0v705h424v-39h-382v-289h362v-39h-362v-299h382v-39h-424zM442 865l-106 142h62l80 -142h-36zM241 765h-51l112 151h36l112 -151h-51l-79 115z" />
    <glyph glyph-name="uni1EC2" unicode="&#x1ec2;" horiz-adv-x="576" 
d="M96 0v705h424v-39h-382v-289h362v-39h-362v-299h382v-39h-424zM440 865h-42v16q0 17 10 25.5t31 18.5q14 6 21 11t7 13q0 10 -12.5 15.5t-33.5 5.5q-30 0 -62 -12l-12 37q35 17 73 17q45 0 70 -17.5t25 -46.5q0 -17 -10.5 -26t-32.5 -20q-16 -7 -24 -13t-8 -15v-9z
M241 765h-51l112 151h36l112 -151h-51l-79 115z" />
    <glyph glyph-name="uni1EC4" unicode="&#x1ec4;" horiz-adv-x="576" 
d="M96 0v705h424v-39h-382v-289h362v-39h-362v-299h382v-39h-424zM187 998.5q21 26.5 58 26.5q22 0 41 -7t47 -21q20 -10 33.5 -15.5t24.5 -5.5q23 0 36.5 17t12.5 36h34q0 -43 -21 -69t-58 -26q-22 0 -41 7t-47 21q-15 8 -31 14t-27 6q-23 0 -36.5 -16.5t-12.5 -35.5h-34
q0 42 21 68.5zM241 765h-51l112 151h36l112 -151h-51l-79 115z" />
    <glyph glyph-name="uni0204" unicode="&#x204;" horiz-adv-x="576" 
d="M96 0v705h424v-39h-382v-289h362v-39h-362v-299h382v-39h-424zM252 765l-96 149h53l70 -149h-27zM361 765l-97 149h54l70 -149h-27z" />
    <glyph glyph-name="Edieresis" unicode="&#xcb;" horiz-adv-x="576" 
d="M96 0v705h424v-39h-382v-289h362v-39h-362v-299h382v-39h-424zM209 871h61v-60h-61v60zM370 871h61v-60h-61v60z" />
    <glyph glyph-name="Edotaccent" unicode="&#x116;" horiz-adv-x="576" 
d="M96 0v705h424v-39h-382v-289h362v-39h-362v-299h382v-39h-424zM288 872h64v-63h-64v63z" />
    <glyph glyph-name="uni1EB8" unicode="&#x1eb8;" horiz-adv-x="576" 
d="M96 0v705h424v-39h-382v-289h362v-39h-362v-299h382v-39h-424zM287 -109h66v-64h-66v64z" />
    <glyph glyph-name="Egrave" unicode="&#xc8;" horiz-adv-x="576" 
d="M96 0v705h424v-39h-382v-289h362v-39h-362v-299h382v-39h-424zM302 765l-124 149h60l100 -149h-36z" />
    <glyph glyph-name="uni1EBA" unicode="&#x1eba;" horiz-adv-x="576" 
d="M96 0v705h424v-39h-382v-289h362v-39h-362v-299h382v-39h-424zM341 765h-41v15q0 18 10.5 28t30.5 22q14 8 20.5 13.5t6.5 13.5q0 10 -12 15t-33 5q-31 0 -63 -12l-12 38q36 16 74 16q45 0 69.5 -17t24.5 -47q0 -19 -11.5 -29.5t-33.5 -22.5q-16 -8 -23 -14t-7 -15v-9z
" />
    <glyph glyph-name="uni0206" unicode="&#x206;" horiz-adv-x="576" 
d="M96 0v705h424v-39h-382v-289h362v-39h-362v-299h382v-39h-424zM411.5 877.5q40.5 -24.5 62.5 -80.5l-40 -17q-26 47 -52 64t-62 17t-62 -17t-52 -64l-40 17q43 105 154 105q51 0 91.5 -24.5z" />
    <glyph glyph-name="Emacron" unicode="&#x112;" horiz-adv-x="576" 
d="M96 0v705h424v-39h-382v-289h362v-39h-362v-299h382v-39h-424zM174 820v42h292v-42h-292z" />
    <glyph glyph-name="uni1E16" unicode="&#x1e16;" horiz-adv-x="576" 
d="M96 0v705h424v-39h-382v-289h362v-39h-362v-299h382v-39h-424zM174 820v42h292v-42h-292zM338 925h-36l100 149h60z" />
    <glyph glyph-name="uni1E14" unicode="&#x1e14;" horiz-adv-x="576" 
d="M96 0v705h424v-39h-382v-289h362v-39h-362v-299h382v-39h-424zM174 820v42h292v-42h-292zM302 925l-124 149h60l100 -149h-36z" />
    <glyph glyph-name="Eogonek" unicode="&#x118;" horiz-adv-x="576" 
d="M551 -167q-32 -23 -77 -23q-51 0 -81.5 28.5t-30.5 73.5q0 52 42 88h-308v705h424v-39h-382v-289h362v-39h-362v-299h382v-39h-12q-50 0 -75.5 -23.5t-25.5 -60.5q0 -32 19 -50t50 -18q26 0 59 19z" />
    <glyph glyph-name="uni1EBC" unicode="&#x1ebc;" horiz-adv-x="576" 
d="M96 0v705h424v-39h-382v-289h362v-39h-362v-299h382v-39h-424zM187 864.5q21 26.5 58 26.5q22 0 42 -9t46 -26q20 -12 33.5 -18.5t24.5 -6.5q23 0 36.5 17t12.5 40h34q0 -44 -21 -70.5t-58 -26.5q-22 0 -42 9t-46 26q-20 12 -33.5 18.5t-24.5 6.5q-23 0 -36.5 -17
t-12.5 -40h-34q0 44 21 70.5z" />
    <glyph glyph-name="F" unicode="F" horiz-adv-x="548" 
d="M96 0v705h414v-39h-373v-289h353v-38h-353v-339h-41z" />
    <glyph glyph-name="G" unicode="G" horiz-adv-x="716" 
d="M628 355v-315q-37 -21 -103.5 -34.5t-134.5 -13.5q-101 0 -173.5 43t-111 124t-38.5 194t38.5 194t110 123.5t170.5 42.5q146 0 237 -95l-21 -36q-51 48 -102.5 69t-116.5 21q-129 0 -200.5 -83.5t-71.5 -235.5q0 -155 72.5 -238t206.5 -83q55 0 107 9.5t92 26.5v247
h-195v40h234z" />
    <glyph glyph-name="Gbreve" unicode="&#x11e;" horiz-adv-x="716" 
d="M628 355v-315q-37 -21 -103.5 -34.5t-134.5 -13.5q-101 0 -173.5 43t-111 124t-38.5 194t38.5 194t110 123.5t170.5 42.5q146 0 237 -95l-21 -36q-51 48 -102.5 69t-116.5 21q-129 0 -200.5 -83.5t-71.5 -235.5q0 -155 72.5 -238t206.5 -83q55 0 107 9.5t92 26.5v247
h-195v40h234zM291.5 802.5q-40.5 24.5 -62.5 80.5l40 18q26 -47 52 -64.5t62 -17.5t62 17.5t52 64.5l40 -18q-43 -105 -154 -105q-51 0 -91.5 24.5z" />
    <glyph glyph-name="Gcaron" unicode="&#x1e6;" horiz-adv-x="716" 
d="M628 355v-315q-37 -21 -103.5 -34.5t-134.5 -13.5q-101 0 -173.5 43t-111 124t-38.5 194t38.5 194t110 123.5t170.5 42.5q146 0 237 -95l-21 -36q-51 48 -102.5 69t-116.5 21q-129 0 -200.5 -83.5t-71.5 -235.5q0 -155 72.5 -238t206.5 -83q55 0 107 9.5t92 26.5v247
h-195v40h234zM462 914h51l-112 -149h-36l-112 149h51l79 -113z" />
    <glyph glyph-name="Gcircumflex" unicode="&#x11c;" horiz-adv-x="716" 
d="M628 355v-315q-37 -21 -103.5 -34.5t-134.5 -13.5q-101 0 -173.5 43t-111 124t-38.5 194t38.5 194t110 123.5t170.5 42.5q146 0 237 -95l-21 -36q-51 48 -102.5 69t-116.5 21q-129 0 -200.5 -83.5t-71.5 -235.5q0 -155 72.5 -238t206.5 -83q55 0 107 9.5t92 26.5v247
h-195v40h234zM304 765h-51l112 149h36l112 -149h-51l-79 113z" />
    <glyph glyph-name="Gcommaaccent" unicode="&#x122;" horiz-adv-x="716" 
d="M628 355v-315q-37 -21 -103.5 -34.5t-134.5 -13.5q-101 0 -173.5 43t-111 124t-38.5 194t38.5 194t110 123.5t170.5 42.5q146 0 237 -95l-21 -36q-51 48 -102.5 69t-116.5 21q-129 0 -200.5 -83.5t-71.5 -235.5q0 -155 72.5 -238t206.5 -83q55 0 107 9.5t92 26.5v247
h-195v40h234zM425 -76v-54q0 -36 -10.5 -65.5t-35.5 -54.5l-27 21q20 22 27.5 42.5t8.5 45.5h-33v65h70z" />
    <glyph glyph-name="Gdotaccent" unicode="&#x120;" horiz-adv-x="716" 
d="M628 355v-315q-37 -21 -103.5 -34.5t-134.5 -13.5q-101 0 -173.5 43t-111 124t-38.5 194t38.5 194t110 123.5t170.5 42.5q146 0 237 -95l-21 -36q-51 48 -102.5 69t-116.5 21q-129 0 -200.5 -83.5t-71.5 -235.5q0 -155 72.5 -238t206.5 -83q55 0 107 9.5t92 26.5v247
h-195v40h234zM351 872h64v-63h-64v63z" />
    <glyph glyph-name="uni1E20" unicode="&#x1e20;" horiz-adv-x="716" 
d="M628 355v-315q-37 -21 -103.5 -34.5t-134.5 -13.5q-101 0 -173.5 43t-111 124t-38.5 194t38.5 194t110 123.5t170.5 42.5q146 0 237 -95l-21 -36q-51 48 -102.5 69t-116.5 21q-129 0 -200.5 -83.5t-71.5 -235.5q0 -155 72.5 -238t206.5 -83q55 0 107 9.5t92 26.5v247
h-195v40h234zM237 820v42h292v-42h-292z" />
    <glyph glyph-name="H" unicode="H" horiz-adv-x="751" 
d="M138 705v-328h474v-38h-474v-339h-42v705h42zM613 705h42v-705h-42v705z" />
    <glyph glyph-name="Hbar" unicode="&#x126;" horiz-adv-x="759" 
d="M755 565v-38h-96v-527h-42v339h-475v-339h-42v527h-96v38h96v140h42v-140h475v140h42v-140h96zM617 377v150h-475v-150h475z" />
    <glyph glyph-name="uni1E2A" unicode="&#x1e2a;" horiz-adv-x="751" 
d="M138 705v-328h474v-38h-474v-339h-42v705h42zM613 705h42v-705h-42v705zM286 -174.5q-40 27.5 -63 88.5l40 17q22 -50 49.5 -71.5t63.5 -21.5t63.5 21.5t49.5 71.5l40 -16q-21 -61 -61.5 -89t-91.5 -28q-50 0 -90 27.5z" />
    <glyph glyph-name="Hcircumflex" unicode="&#x124;" horiz-adv-x="751" 
d="M138 705v-328h474v-38h-474v-339h-42v705h42zM613 705h42v-705h-42v705zM296 765h-51l112 149h36l112 -149h-51l-79 113z" />
    <glyph glyph-name="uni1E24" unicode="&#x1e24;" horiz-adv-x="751" 
d="M138 705v-328h474v-38h-474v-339h-42v705h42zM613 705h42v-705h-42v705zM343 -109h66v-64h-66v64z" />
    <glyph glyph-name="I" unicode="I" horiz-adv-x="233" 
d="M96 0v705h41v-705h-41z" />
    <glyph glyph-name="Iacute" unicode="&#xcd;" horiz-adv-x="233" 
d="M96 0v705h41v-705h-41zM135 765h-36l100 149h60z" />
    <glyph glyph-name="Ibreve" unicode="&#x12c;" horiz-adv-x="233" 
d="M96 0v705h41v-705h-41zM25.5 802.5q-40.5 24.5 -62.5 80.5l40 18q26 -47 52 -64.5t62 -17.5t62 17.5t52 64.5l40 -18q-43 -105 -154 -105q-51 0 -91.5 24.5z" />
    <glyph glyph-name="Icircumflex" unicode="&#xce;" horiz-adv-x="233" 
d="M96 0v705h41v-705h-41zM38 765h-51l112 149h36l112 -149h-51l-79 113z" />
    <glyph glyph-name="uni0208" unicode="&#x208;" horiz-adv-x="233" 
d="M96 0v705h41v-705h-41zM49 765l-96 149h53l70 -149h-27zM158 765l-97 149h54l70 -149h-27z" />
    <glyph glyph-name="Idieresis" unicode="&#xcf;" horiz-adv-x="233" 
d="M96 0v705h41v-705h-41zM6 871h61v-60h-61v60zM167 871h61v-60h-61v60z" />
    <glyph glyph-name="uni1E2E" unicode="&#x1e2e;" horiz-adv-x="233" 
d="M96 0v705h41v-705h-41zM6 871h61v-60h-61v60zM167 871h61v-60h-61v60zM135 925h-36l100 149h60z" />
    <glyph glyph-name="Idotaccent" unicode="&#x130;" horiz-adv-x="233" 
d="M96 0v705h41v-705h-41zM85 872h64v-63h-64v63z" />
    <glyph glyph-name="uni1ECA" unicode="&#x1eca;" horiz-adv-x="233" 
d="M96 0v705h41v-705h-41zM84 -109h66v-64h-66v64z" />
    <glyph glyph-name="Igrave" unicode="&#xcc;" horiz-adv-x="233" 
d="M96 0v705h41v-705h-41zM99 765l-124 149h60l100 -149h-36z" />
    <glyph glyph-name="uni1EC8" unicode="&#x1ec8;" horiz-adv-x="233" 
d="M96 0v705h41v-705h-41zM138 765h-41v15q0 18 10.5 28t30.5 22q14 8 20.5 13.5t6.5 13.5q0 10 -12 15t-33 5q-31 0 -63 -12l-12 38q36 16 74 16q45 0 69.5 -17t24.5 -47q0 -19 -11.5 -29.5t-33.5 -22.5q-16 -8 -23 -14t-7 -15v-9z" />
    <glyph glyph-name="uni020A" unicode="&#x20a;" horiz-adv-x="233" 
d="M96 0v705h41v-705h-41zM208.5 877.5q40.5 -24.5 62.5 -80.5l-40 -17q-26 47 -52 64t-62 17t-62 -17t-52 -64l-40 17q43 105 154 105q51 0 91.5 -24.5z" />
    <glyph glyph-name="Imacron" unicode="&#x12a;" horiz-adv-x="233" 
d="M96 0v705h41v-705h-41zM-29 820v42h292v-42h-292z" />
    <glyph glyph-name="Iogonek" unicode="&#x12e;" horiz-adv-x="233" 
d="M186 -167q-32 -23 -78 -23q-50 0 -80.5 28.5t-30.5 73.5q0 40 26 72t73 47v674h41v-705h-2q-43 0 -68.5 -24.5t-25.5 -59.5q0 -32 19 -50t51 -18q26 0 59 19z" />
    <glyph glyph-name="Itilde" unicode="&#x128;" horiz-adv-x="233" 
d="M96 0v705h41v-705h-41zM-16 864.5q21 26.5 58 26.5q22 0 42 -9t46 -26q20 -12 33.5 -18.5t24.5 -6.5q23 0 36.5 17t12.5 40h34q0 -44 -21 -70.5t-58 -26.5q-22 0 -42 9t-46 26q-20 12 -33.5 18.5t-24.5 6.5q-23 0 -36.5 -17t-12.5 -40h-34q0 44 21 70.5z" />
    <glyph glyph-name="J" unicode="J" horiz-adv-x="297" 
d="M-10 32l51 4q56 4 87.5 42.5t31.5 100.5v526h41v-528q0 -80 -40.5 -127t-116.5 -52l-50 -4z" />
    <glyph glyph-name="Jcircumflex" unicode="&#x134;" horiz-adv-x="297" 
d="M-10 32l51 4q56 4 87.5 42.5t31.5 100.5v526h41v-528q0 -80 -40.5 -127t-116.5 -52l-50 -4zM102 765h-51l112 149h36l112 -149h-51l-79 113z" />
    <glyph glyph-name="K" unicode="K" horiz-adv-x="599" 
d="M593 0h-61l-395 340v-340h-41v705h41v-330l374 330h59l-392 -346z" />
    <glyph glyph-name="Kcommaaccent" unicode="&#x136;" horiz-adv-x="599" 
d="M593 0h-61l-395 340v-340h-41v705h41v-330l374 330h59l-392 -346zM337 -76v-54q0 -36 -10.5 -65.5t-35.5 -54.5l-27 21q20 22 27.5 42.5t8.5 45.5h-33v65h70z" />
    <glyph glyph-name="L" unicode="L" horiz-adv-x="527" 
d="M96 0v705h41v-667h375v-38h-416z" />
    <glyph glyph-name="uni01C7" unicode="&#x1c7;" horiz-adv-x="822" 
d="M96 0v705h41v-667h345v-38h-386zM515 32l50 4q119 9 119 127v542h42v-538q0 -78 -39.5 -121t-117.5 -48l-51 -4z" />
    <glyph glyph-name="Lacute" unicode="&#x139;" horiz-adv-x="527" 
d="M96 0v705h41v-667h375v-38h-416zM135 765h-36l100 149h60z" />
    <glyph glyph-name="Lcaron" unicode="&#x13d;" horiz-adv-x="527" 
d="M96 0v705h41v-667h375v-38h-416zM248 517h-28v188h54z" />
    <glyph glyph-name="Lcommaaccent" unicode="&#x13b;" horiz-adv-x="527" 
d="M96 0v705h41v-667h375v-38h-416zM341 -76v-54q0 -36 -10.5 -65.5t-35.5 -54.5l-27 21q20 22 27.5 42.5t8.5 45.5h-33v65h70z" />
    <glyph glyph-name="Ldot" unicode="&#x13f;" horiz-adv-x="527" 
d="M96 0v705h41v-667h375v-38h-416zM293 387h69v-68h-69v68z" />
    <glyph glyph-name="uni1E36" unicode="&#x1e36;" horiz-adv-x="527" 
d="M96 0v705h41v-667h375v-38h-416zM273 -109h66v-64h-66v64z" />
    <glyph glyph-name="uni01C8" unicode="&#x1c8;" horiz-adv-x="739" 
d="M96 0v705h41v-667h375v-38h-416zM654 -11q0 -77 -40.5 -120.5t-115.5 -48.5l-43 -3l-4 38l42 2q59 5 89 38t30 93v496h42v-495zM601 682h64v-63h-64v63z" />
    <glyph glyph-name="uni1E3A" unicode="&#x1e3a;" horiz-adv-x="527" 
d="M96 0v705h41v-667h375v-38h-416zM160 -162v43h292v-43h-292z" />
    <glyph glyph-name="Lslash" unicode="&#x141;" horiz-adv-x="531" 
d="M141 38h375v-38h-416v323l-83 -48l-20 34l103 59v337h41v-313l180 103l20 -33l-200 -115v-309z" />
    <glyph glyph-name="M" unicode="M" horiz-adv-x="840" 
d="M707 705h37v-705h-41l1 617l-266 -507h-34l-268 503l1 -613h-41v705h36l289 -555z" />
    <glyph glyph-name="uni1E42" unicode="&#x1e42;" horiz-adv-x="840" 
d="M707 705h37v-705h-41l1 617l-266 -507h-34l-268 503l1 -613h-41v705h36l289 -555zM387 -109h66v-64h-66v64z" />
    <glyph glyph-name="N" unicode="N" horiz-adv-x="732" 
d="M597 705h39v-705h-34l-467 634v-634h-39v705h35l466 -633v633z" />
    <glyph glyph-name="uni01CA" unicode="&#x1ca;" horiz-adv-x="1029" 
d="M597 705h39v-705h-34l-467 634v-634h-39v705h35l466 -633v633zM722 32l51 4q56 4 87.5 42.5t31.5 100.5v526h41v-528q0 -80 -40.5 -127t-116.5 -52l-50 -4z" />
    <glyph glyph-name="Nacute" unicode="&#x143;" horiz-adv-x="732" 
d="M597 705h39v-705h-34l-467 634v-634h-39v705h35l466 -633v633zM384 765h-36l100 149h60z" />
    <glyph glyph-name="Ncaron" unicode="&#x147;" horiz-adv-x="732" 
d="M597 705h39v-705h-34l-467 634v-634h-39v705h35l466 -633v633zM445 914h51l-112 -149h-36l-112 149h51l79 -113z" />
    <glyph glyph-name="Ncommaaccent" unicode="&#x145;" horiz-adv-x="732" 
d="M597 705h39v-705h-34l-467 634v-634h-39v705h35l466 -633v633zM401 -76v-54q0 -36 -10.5 -65.5t-35.5 -54.5l-27 21q20 22 27.5 42.5t8.5 45.5h-33v65h70z" />
    <glyph glyph-name="uni1E44" unicode="&#x1e44;" horiz-adv-x="732" 
d="M597 705h39v-705h-34l-467 634v-634h-39v705h35l466 -633v633zM334 872h64v-63h-64v63z" />
    <glyph glyph-name="uni1E46" unicode="&#x1e46;" horiz-adv-x="732" 
d="M597 705h39v-705h-34l-467 634v-634h-39v705h35l466 -633v633zM333 -109h66v-64h-66v64z" />
    <glyph glyph-name="Eng" unicode="&#x14a;" horiz-adv-x="732" 
d="M636 705v-719q0 -74 -38 -118t-119 -50l-51 -4l-3 39l50 3q122 11 122 127v24l-462 627v-634h-39v705h35l466 -633v633h39z" />
    <glyph glyph-name="uni01CB" unicode="&#x1cb;" horiz-adv-x="944" 
d="M597 705h39v-705h-34l-467 634v-634h-39v705h35l466 -633v633zM859 -11q0 -77 -40.5 -120.5t-115.5 -48.5l-43 -3l-4 38l42 2q59 5 89 38t30 93v496h42v-495zM806 682h64v-63h-64v63z" />
    <glyph glyph-name="uni1E48" unicode="&#x1e48;" horiz-adv-x="732" 
d="M597 705h39v-705h-34l-467 634v-634h-39v705h35l466 -633v633zM220 -162v43h292v-43h-292z" />
    <glyph glyph-name="Ntilde" unicode="&#xd1;" horiz-adv-x="732" 
d="M597 705h39v-705h-34l-467 634v-634h-39v705h35l466 -633v633zM233 864.5q21 26.5 58 26.5q22 0 42 -9t46 -26q20 -12 33.5 -18.5t24.5 -6.5q23 0 36.5 17t12.5 40h34q0 -44 -21 -70.5t-58 -26.5q-22 0 -42 9t-46 26q-20 12 -33.5 18.5t-24.5 6.5q-23 0 -36.5 -17
t-12.5 -40h-34q0 44 21 70.5z" />
    <glyph glyph-name="O" unicode="O" horiz-adv-x="751" 
d="M211.5 35.5q-69.5 43.5 -107 125t-37.5 191.5q0 111 37 192.5t106.5 125t164.5 43.5t165 -43.5t107 -124.5t37 -192t-37.5 -192.5t-107 -125t-164.5 -43.5q-94 0 -163.5 43.5zM570 117q69 84 69 236t-68.5 235.5t-195.5 83.5q-125 0 -194 -83.5t-69 -235.5t69 -236
t194 -84q126 0 195 84z" />
    <glyph glyph-name="Oacute" unicode="&#xd3;" horiz-adv-x="751" 
d="M211.5 35.5q-69.5 43.5 -107 125t-37.5 191.5q0 111 37 192.5t106.5 125t164.5 43.5t165 -43.5t107 -124.5t37 -192t-37.5 -192.5t-107 -125t-164.5 -43.5q-94 0 -163.5 43.5zM570 117q69 84 69 236t-68.5 235.5t-195.5 83.5q-125 0 -194 -83.5t-69 -235.5t69 -236
t194 -84q126 0 195 84zM393 765h-36l100 149h60z" />
    <glyph glyph-name="Obreve" unicode="&#x14e;" horiz-adv-x="751" 
d="M211.5 35.5q-69.5 43.5 -107 125t-37.5 191.5q0 111 37 192.5t106.5 125t164.5 43.5t165 -43.5t107 -124.5t37 -192t-37.5 -192.5t-107 -125t-164.5 -43.5q-94 0 -163.5 43.5zM570 117q69 84 69 236t-68.5 235.5t-195.5 83.5q-125 0 -194 -83.5t-69 -235.5t69 -236
t194 -84q126 0 195 84zM283.5 802.5q-40.5 24.5 -62.5 80.5l40 18q26 -47 52 -64.5t62 -17.5t62 17.5t52 64.5l40 -18q-43 -105 -154 -105q-51 0 -91.5 24.5z" />
    <glyph glyph-name="Ocircumflex" unicode="&#xd4;" horiz-adv-x="751" 
d="M211.5 35.5q-69.5 43.5 -107 125t-37.5 191.5q0 111 37 192.5t106.5 125t164.5 43.5t165 -43.5t107 -124.5t37 -192t-37.5 -192.5t-107 -125t-164.5 -43.5q-94 0 -163.5 43.5zM570 117q69 84 69 236t-68.5 235.5t-195.5 83.5q-125 0 -194 -83.5t-69 -235.5t69 -236
t194 -84q126 0 195 84zM296 765h-51l112 149h36l112 -149h-51l-79 113z" />
    <glyph glyph-name="uni1ED0" unicode="&#x1ed0;" horiz-adv-x="751" 
d="M211.5 35.5q-69.5 43.5 -107 125t-37.5 191.5q0 111 37 192.5t106.5 125t164.5 43.5t165 -43.5t107 -124.5t37 -192t-37.5 -192.5t-107 -125t-164.5 -43.5q-94 0 -163.5 43.5zM570 117q69 84 69 236t-68.5 235.5t-195.5 83.5q-125 0 -194 -83.5t-69 -235.5t69 -236
t194 -84q126 0 195 84zM490 865h-36l103 142h62zM296 765h-51l112 151h36l112 -151h-51l-79 115z" />
    <glyph glyph-name="uni1ED8" unicode="&#x1ed8;" horiz-adv-x="751" 
d="M211.5 35.5q-69.5 43.5 -107 125t-37.5 191.5q0 111 37 192.5t106.5 125t164.5 43.5t165 -43.5t107 -124.5t37 -192t-37.5 -192.5t-107 -125t-164.5 -43.5q-94 0 -163.5 43.5zM570 117q69 84 69 236t-68.5 235.5t-195.5 83.5q-125 0 -194 -83.5t-69 -235.5t69 -236
t194 -84q126 0 195 84zM342 -109h66v-64h-66v64zM296 765h-51l112 149h36l112 -149h-51l-79 113z" />
    <glyph glyph-name="uni1ED2" unicode="&#x1ed2;" horiz-adv-x="751" 
d="M211.5 35.5q-69.5 43.5 -107 125t-37.5 191.5q0 111 37 192.5t106.5 125t164.5 43.5t165 -43.5t107 -124.5t37 -192t-37.5 -192.5t-107 -125t-164.5 -43.5q-94 0 -163.5 43.5zM570 117q69 84 69 236t-68.5 235.5t-195.5 83.5q-125 0 -194 -83.5t-69 -235.5t69 -236
t194 -84q126 0 195 84zM497 865l-106 142h62l80 -142h-36zM296 765h-51l112 151h36l112 -151h-51l-79 115z" />
    <glyph glyph-name="uni1ED4" unicode="&#x1ed4;" horiz-adv-x="751" 
d="M211.5 35.5q-69.5 43.5 -107 125t-37.5 191.5q0 111 37 192.5t106.5 125t164.5 43.5t165 -43.5t107 -124.5t37 -192t-37.5 -192.5t-107 -125t-164.5 -43.5q-94 0 -163.5 43.5zM570 117q69 84 69 236t-68.5 235.5t-195.5 83.5q-125 0 -194 -83.5t-69 -235.5t69 -236
t194 -84q126 0 195 84zM495 865h-42v16q0 17 10 25.5t31 18.5q14 6 21 11t7 13q0 10 -12.5 15.5t-33.5 5.5q-30 0 -62 -12l-12 37q35 17 73 17q45 0 70 -17.5t25 -46.5q0 -17 -10.5 -26t-32.5 -20q-16 -7 -24 -13t-8 -15v-9zM296 765h-51l112 151h36l112 -151h-51l-79 115z
" />
    <glyph glyph-name="uni1ED6" unicode="&#x1ed6;" horiz-adv-x="751" 
d="M211.5 35.5q-69.5 43.5 -107 125t-37.5 191.5q0 111 37 192.5t106.5 125t164.5 43.5t165 -43.5t107 -124.5t37 -192t-37.5 -192.5t-107 -125t-164.5 -43.5q-94 0 -163.5 43.5zM570 117q69 84 69 236t-68.5 235.5t-195.5 83.5q-125 0 -194 -83.5t-69 -235.5t69 -236
t194 -84q126 0 195 84zM242 998.5q21 26.5 58 26.5q22 0 41 -7t47 -21q20 -10 33.5 -15.5t24.5 -5.5q23 0 36.5 17t12.5 36h34q0 -43 -21 -69t-58 -26q-22 0 -41 7t-47 21q-15 8 -31 14t-27 6q-23 0 -36.5 -16.5t-12.5 -35.5h-34q0 42 21 68.5zM296 765h-51l112 151h36
l112 -151h-51l-79 115z" />
    <glyph glyph-name="uni020C" unicode="&#x20c;" horiz-adv-x="751" 
d="M211.5 35.5q-69.5 43.5 -107 125t-37.5 191.5q0 111 37 192.5t106.5 125t164.5 43.5t165 -43.5t107 -124.5t37 -192t-37.5 -192.5t-107 -125t-164.5 -43.5q-94 0 -163.5 43.5zM570 117q69 84 69 236t-68.5 235.5t-195.5 83.5q-125 0 -194 -83.5t-69 -235.5t69 -236
t194 -84q126 0 195 84zM307 765l-96 149h53l70 -149h-27zM416 765l-97 149h54l70 -149h-27z" />
    <glyph glyph-name="Odieresis" unicode="&#xd6;" horiz-adv-x="751" 
d="M211.5 35.5q-69.5 43.5 -107 125t-37.5 191.5q0 111 37 192.5t106.5 125t164.5 43.5t165 -43.5t107 -124.5t37 -192t-37.5 -192.5t-107 -125t-164.5 -43.5q-94 0 -163.5 43.5zM570 117q69 84 69 236t-68.5 235.5t-195.5 83.5q-125 0 -194 -83.5t-69 -235.5t69 -236
t194 -84q126 0 195 84zM264 871h61v-60h-61v60zM425 871h61v-60h-61v60z" />
    <glyph glyph-name="uni022A" unicode="&#x22a;" horiz-adv-x="751" 
d="M211.5 35.5q-69.5 43.5 -107 125t-37.5 191.5q0 111 37 192.5t106.5 125t164.5 43.5t165 -43.5t107 -124.5t37 -192t-37.5 -192.5t-107 -125t-164.5 -43.5q-94 0 -163.5 43.5zM570 117q69 84 69 236t-68.5 235.5t-195.5 83.5q-125 0 -194 -83.5t-69 -235.5t69 -236
t194 -84q126 0 195 84zM264 871h61v-60h-61v60zM425 871h61v-60h-61v60zM229 980v42h292v-42h-292z" />
    <glyph glyph-name="uni0230" unicode="&#x230;" horiz-adv-x="751" 
d="M211.5 35.5q-69.5 43.5 -107 125t-37.5 191.5q0 111 37 192.5t106.5 125t164.5 43.5t165 -43.5t107 -124.5t37 -192t-37.5 -192.5t-107 -125t-164.5 -43.5q-94 0 -163.5 43.5zM570 117q69 84 69 236t-68.5 235.5t-195.5 83.5q-125 0 -194 -83.5t-69 -235.5t69 -236
t194 -84q126 0 195 84zM343 872h64v-63h-64v63zM229 980v42h292v-42h-292z" />
    <glyph glyph-name="uni1ECC" unicode="&#x1ecc;" horiz-adv-x="751" 
d="M211.5 35.5q-69.5 43.5 -107 125t-37.5 191.5q0 111 37 192.5t106.5 125t164.5 43.5t165 -43.5t107 -124.5t37 -192t-37.5 -192.5t-107 -125t-164.5 -43.5q-94 0 -163.5 43.5zM570 117q69 84 69 236t-68.5 235.5t-195.5 83.5q-125 0 -194 -83.5t-69 -235.5t69 -236
t194 -84q126 0 195 84zM342 -109h66v-64h-66v64z" />
    <glyph glyph-name="Ograve" unicode="&#xd2;" horiz-adv-x="751" 
d="M211.5 35.5q-69.5 43.5 -107 125t-37.5 191.5q0 111 37 192.5t106.5 125t164.5 43.5t165 -43.5t107 -124.5t37 -192t-37.5 -192.5t-107 -125t-164.5 -43.5q-94 0 -163.5 43.5zM570 117q69 84 69 236t-68.5 235.5t-195.5 83.5q-125 0 -194 -83.5t-69 -235.5t69 -236
t194 -84q126 0 195 84zM357 765l-124 149h60l100 -149h-36z" />
    <glyph glyph-name="uni1ECE" unicode="&#x1ece;" horiz-adv-x="751" 
d="M211.5 35.5q-69.5 43.5 -107 125t-37.5 191.5q0 111 37 192.5t106.5 125t164.5 43.5t165 -43.5t107 -124.5t37 -192t-37.5 -192.5t-107 -125t-164.5 -43.5q-94 0 -163.5 43.5zM570 117q69 84 69 236t-68.5 235.5t-195.5 83.5q-125 0 -194 -83.5t-69 -235.5t69 -236
t194 -84q126 0 195 84zM396 765h-41v15q0 18 10.5 28t30.5 22q14 8 20.5 13.5t6.5 13.5q0 10 -12 15t-33 5q-31 0 -63 -12l-12 38q36 16 74 16q45 0 69.5 -17t24.5 -47q0 -19 -11.5 -29.5t-33.5 -22.5q-16 -8 -23 -14t-7 -15v-9z" />
    <glyph glyph-name="Ohorn" unicode="&#x1a0;" horiz-adv-x="751" 
d="M646.5 708q-37.5 -38 -105.5 -41q70 -43 106.5 -123.5t36.5 -190.5t-38 -191.5t-107.5 -125.5t-163.5 -44t-163.5 43.5t-107 125t-37.5 191.5q0 111 37 192.5t107.5 125t167.5 43.5q27 0 79 -4q46 -4 64 -4q67 1 94.5 27t27.5 87v13h40v-20q0 -66 -37.5 -104z
M570.5 588.5q-68.5 83.5 -195.5 83.5q-125 0 -194 -83.5t-69 -235.5t69 -236t194 -84q126 0 195 84t69 236t-68.5 235.5z" />
    <glyph glyph-name="uni1EDA" unicode="&#x1eda;" horiz-adv-x="751" 
d="M646.5 708q-37.5 -38 -105.5 -41q70 -43 106.5 -123.5t36.5 -190.5t-38 -191.5t-107.5 -125.5t-163.5 -44t-163.5 43.5t-107 125t-37.5 191.5q0 111 37 192.5t107.5 125t167.5 43.5q27 0 79 -4q46 -4 64 -4q67 1 94.5 27t27.5 87v13h40v-20q0 -66 -37.5 -104z
M570.5 588.5q-68.5 83.5 -195.5 83.5q-125 0 -194 -83.5t-69 -235.5t69 -236t194 -84q126 0 195 84t69 236t-68.5 235.5zM393 765h-36l100 149h60z" />
    <glyph glyph-name="uni1EE2" unicode="&#x1ee2;" horiz-adv-x="751" 
d="M646.5 708q-37.5 -38 -105.5 -41q70 -43 106.5 -123.5t36.5 -190.5t-38 -191.5t-107.5 -125.5t-163.5 -44t-163.5 43.5t-107 125t-37.5 191.5q0 111 37 192.5t107.5 125t167.5 43.5q27 0 79 -4q46 -4 64 -4q67 1 94.5 27t27.5 87v13h40v-20q0 -66 -37.5 -104z
M570.5 588.5q-68.5 83.5 -195.5 83.5q-125 0 -194 -83.5t-69 -235.5t69 -236t194 -84q126 0 195 84t69 236t-68.5 235.5zM343 -109h66v-64h-66v64z" />
    <glyph glyph-name="uni1EDC" unicode="&#x1edc;" horiz-adv-x="751" 
d="M646.5 708q-37.5 -38 -105.5 -41q70 -43 106.5 -123.5t36.5 -190.5t-38 -191.5t-107.5 -125.5t-163.5 -44t-163.5 43.5t-107 125t-37.5 191.5q0 111 37 192.5t107.5 125t167.5 43.5q27 0 79 -4q46 -4 64 -4q67 1 94.5 27t27.5 87v13h40v-20q0 -66 -37.5 -104z
M570.5 588.5q-68.5 83.5 -195.5 83.5q-125 0 -194 -83.5t-69 -235.5t69 -236t194 -84q126 0 195 84t69 236t-68.5 235.5zM357 765l-124 149h60l100 -149h-36z" />
    <glyph glyph-name="uni1EDE" unicode="&#x1ede;" horiz-adv-x="751" 
d="M646.5 708q-37.5 -38 -105.5 -41q70 -43 106.5 -123.5t36.5 -190.5t-38 -191.5t-107.5 -125.5t-163.5 -44t-163.5 43.5t-107 125t-37.5 191.5q0 111 37 192.5t107.5 125t167.5 43.5q27 0 79 -4q46 -4 64 -4q67 1 94.5 27t27.5 87v13h40v-20q0 -66 -37.5 -104z
M570.5 588.5q-68.5 83.5 -195.5 83.5q-125 0 -194 -83.5t-69 -235.5t69 -236t194 -84q126 0 195 84t69 236t-68.5 235.5zM396 765h-41v15q0 18 10.5 28t30.5 22q14 8 20.5 13.5t6.5 13.5q0 10 -12 15t-33 5q-31 0 -63 -12l-12 38q36 16 74 16q45 0 69.5 -17t24.5 -47
q0 -19 -11.5 -29.5t-33.5 -22.5q-16 -8 -23 -14t-7 -15v-9z" />
    <glyph glyph-name="uni1EE0" unicode="&#x1ee0;" horiz-adv-x="751" 
d="M646.5 708q-37.5 -38 -105.5 -41q70 -43 106.5 -123.5t36.5 -190.5t-38 -191.5t-107.5 -125.5t-163.5 -44t-163.5 43.5t-107 125t-37.5 191.5q0 111 37 192.5t107.5 125t167.5 43.5q27 0 79 -4q46 -4 64 -4q67 1 94.5 27t27.5 87v13h40v-20q0 -66 -37.5 -104z
M570.5 588.5q-68.5 83.5 -195.5 83.5q-125 0 -194 -83.5t-69 -235.5t69 -236t194 -84q126 0 195 84t69 236t-68.5 235.5zM242 864.5q21 26.5 58 26.5q22 0 42 -9t46 -26q20 -12 33.5 -18.5t24.5 -6.5q23 0 36.5 17t12.5 40h34q0 -44 -21 -70.5t-58 -26.5q-22 0 -42 9t-46 26
q-20 12 -33.5 18.5t-24.5 6.5q-23 0 -36.5 -17t-12.5 -40h-34q0 44 21 70.5z" />
    <glyph glyph-name="Ohungarumlaut" unicode="&#x150;" horiz-adv-x="751" 
d="M211.5 35.5q-69.5 43.5 -107 125t-37.5 191.5q0 111 37 192.5t106.5 125t164.5 43.5t165 -43.5t107 -124.5t37 -192t-37.5 -192.5t-107 -125t-164.5 -43.5q-94 0 -163.5 43.5zM570 117q69 84 69 236t-68.5 235.5t-195.5 83.5q-125 0 -194 -83.5t-69 -235.5t69 -236
t194 -84q126 0 195 84zM318 765h-27l69 149h54zM459 765h-27l70 149h54z" />
    <glyph glyph-name="uni020E" unicode="&#x20e;" horiz-adv-x="751" 
d="M211.5 35.5q-69.5 43.5 -107 125t-37.5 191.5q0 111 37 192.5t106.5 125t164.5 43.5t165 -43.5t107 -124.5t37 -192t-37.5 -192.5t-107 -125t-164.5 -43.5q-94 0 -163.5 43.5zM570 117q69 84 69 236t-68.5 235.5t-195.5 83.5q-125 0 -194 -83.5t-69 -235.5t69 -236
t194 -84q126 0 195 84zM466.5 877.5q40.5 -24.5 62.5 -80.5l-40 -17q-26 47 -52 64t-62 17t-62 -17t-52 -64l-40 17q43 105 154 105q51 0 91.5 -24.5z" />
    <glyph glyph-name="Omacron" unicode="&#x14c;" horiz-adv-x="751" 
d="M211.5 35.5q-69.5 43.5 -107 125t-37.5 191.5q0 111 37 192.5t106.5 125t164.5 43.5t165 -43.5t107 -124.5t37 -192t-37.5 -192.5t-107 -125t-164.5 -43.5q-94 0 -163.5 43.5zM570 117q69 84 69 236t-68.5 235.5t-195.5 83.5q-125 0 -194 -83.5t-69 -235.5t69 -236
t194 -84q126 0 195 84zM229 820v42h292v-42h-292z" />
    <glyph glyph-name="uni1E52" unicode="&#x1e52;" horiz-adv-x="751" 
d="M211.5 35.5q-69.5 43.5 -107 125t-37.5 191.5q0 111 37 192.5t106.5 125t164.5 43.5t165 -43.5t107 -124.5t37 -192t-37.5 -192.5t-107 -125t-164.5 -43.5q-94 0 -163.5 43.5zM570 117q69 84 69 236t-68.5 235.5t-195.5 83.5q-125 0 -194 -83.5t-69 -235.5t69 -236
t194 -84q126 0 195 84zM229 820v42h292v-42h-292zM393 925h-36l100 149h60z" />
    <glyph glyph-name="uni1E50" unicode="&#x1e50;" horiz-adv-x="751" 
d="M211.5 35.5q-69.5 43.5 -107 125t-37.5 191.5q0 111 37 192.5t106.5 125t164.5 43.5t165 -43.5t107 -124.5t37 -192t-37.5 -192.5t-107 -125t-164.5 -43.5q-94 0 -163.5 43.5zM570 117q69 84 69 236t-68.5 235.5t-195.5 83.5q-125 0 -194 -83.5t-69 -235.5t69 -236
t194 -84q126 0 195 84zM229 820v42h292v-42h-292zM357 925l-124 149h60l100 -149h-36z" />
    <glyph glyph-name="uni01EA" unicode="&#x1ea;" horiz-adv-x="751" 
d="M384 -84q0 -32 18.5 -50t50.5 -18q23 0 59 19l16 -34q-31 -23 -77 -23q-50 0 -81 28t-31 74q0 45 33 80q-92 0 -161 44t-106.5 125t-37.5 191q0 111 37 192.5t106.5 125t164.5 43.5t164.5 -43.5t107 -124.5t37.5 -192q0 -139 -58 -230t-165 -120q-77 -21 -77 -87z
M181 117q69 -84 194 -84q126 0 195 84t69 236t-68.5 235.5t-195.5 83.5q-125 0 -194 -83.5t-69 -235.5t69 -236z" />
    <glyph glyph-name="Oslash" unicode="&#xd8;" horiz-adv-x="751" 
d="M654.5 526.5q29.5 -75.5 29.5 -173.5q0 -111 -37.5 -192.5t-107 -125t-164.5 -43.5q-94 0 -163 43l-41 -70l-33 18l43 74q-55 47 -84.5 122.5t-29.5 172.5q0 111 37 192.5t106.5 125t164.5 43.5t164 -43l41 70l33 -18l-43 -74q55 -46 84.5 -121.5zM135.5 200.5
q23.5 -65.5 67.5 -106.5l315 541q-60 37 -143 37q-125 0 -194 -83.5t-69 -235.5q0 -87 23.5 -152.5zM570 117q69 84 69 236q0 177 -90 259l-316 -541q59 -38 142 -38q126 0 195 84z" />
    <glyph glyph-name="Oslashacute" unicode="&#x1fe;" horiz-adv-x="751" 
d="M654.5 526.5q29.5 -75.5 29.5 -173.5q0 -111 -37.5 -192.5t-107 -125t-164.5 -43.5q-94 0 -163 43l-41 -70l-33 18l43 74q-55 47 -84.5 122.5t-29.5 172.5q0 111 37 192.5t106.5 125t164.5 43.5t164 -43l41 70l33 -18l-43 -74q55 -46 84.5 -121.5zM135.5 200.5
q23.5 -65.5 67.5 -106.5l315 541q-60 37 -143 37q-125 0 -194 -83.5t-69 -235.5q0 -87 23.5 -152.5zM570 117q69 84 69 236q0 177 -90 259l-316 -541q59 -38 142 -38q126 0 195 84zM393 765h-36l100 149h60z" />
    <glyph glyph-name="Otilde" unicode="&#xd5;" horiz-adv-x="751" 
d="M211.5 35.5q-69.5 43.5 -107 125t-37.5 191.5q0 111 37 192.5t106.5 125t164.5 43.5t165 -43.5t107 -124.5t37 -192t-37.5 -192.5t-107 -125t-164.5 -43.5q-94 0 -163.5 43.5zM570 117q69 84 69 236t-68.5 235.5t-195.5 83.5q-125 0 -194 -83.5t-69 -235.5t69 -236
t194 -84q126 0 195 84zM242 864.5q21 26.5 58 26.5q22 0 42 -9t46 -26q20 -12 33.5 -18.5t24.5 -6.5q23 0 36.5 17t12.5 40h34q0 -44 -21 -70.5t-58 -26.5q-22 0 -42 9t-46 26q-20 12 -33.5 18.5t-24.5 6.5q-23 0 -36.5 -17t-12.5 -40h-34q0 44 21 70.5z" />
    <glyph glyph-name="uni1E4C" unicode="&#x1e4c;" horiz-adv-x="751" 
d="M211.5 35.5q-69.5 43.5 -107 125t-37.5 191.5q0 111 37 192.5t106.5 125t164.5 43.5t165 -43.5t107 -124.5t37 -192t-37.5 -192.5t-107 -125t-164.5 -43.5q-94 0 -163.5 43.5zM570 117q69 84 69 236t-68.5 235.5t-195.5 83.5q-125 0 -194 -83.5t-69 -235.5t69 -236
t194 -84q126 0 195 84zM242 864.5q21 26.5 58 26.5q22 0 42 -9t46 -26q20 -12 33.5 -18.5t24.5 -6.5q23 0 36.5 17t12.5 40h34q0 -44 -21 -70.5t-58 -26.5q-22 0 -42 9t-46 26q-20 12 -33.5 18.5t-24.5 6.5q-23 0 -36.5 -17t-12.5 -40h-34q0 44 21 70.5zM393 925h-36
l100 149h60z" />
    <glyph glyph-name="uni1E4E" unicode="&#x1e4e;" horiz-adv-x="751" 
d="M211.5 35.5q-69.5 43.5 -107 125t-37.5 191.5q0 111 37 192.5t106.5 125t164.5 43.5t165 -43.5t107 -124.5t37 -192t-37.5 -192.5t-107 -125t-164.5 -43.5q-94 0 -163.5 43.5zM570 117q69 84 69 236t-68.5 235.5t-195.5 83.5q-125 0 -194 -83.5t-69 -235.5t69 -236
t194 -84q126 0 195 84zM242 864.5q21 26.5 58 26.5q22 0 42 -9t46 -26q20 -12 33.5 -18.5t24.5 -6.5q23 0 36.5 17t12.5 40h34q0 -44 -21 -70.5t-58 -26.5q-22 0 -42 9t-46 26q-20 12 -33.5 18.5t-24.5 6.5q-23 0 -36.5 -17t-12.5 -40h-34q0 44 21 70.5zM264 1031h61v-60
h-61v60zM425 1031h61v-60h-61v60z" />
    <glyph glyph-name="uni022C" unicode="&#x22c;" horiz-adv-x="751" 
d="M211.5 35.5q-69.5 43.5 -107 125t-37.5 191.5q0 111 37 192.5t106.5 125t164.5 43.5t165 -43.5t107 -124.5t37 -192t-37.5 -192.5t-107 -125t-164.5 -43.5q-94 0 -163.5 43.5zM570 117q69 84 69 236t-68.5 235.5t-195.5 83.5q-125 0 -194 -83.5t-69 -235.5t69 -236
t194 -84q126 0 195 84zM242 864.5q21 26.5 58 26.5q22 0 42 -9t46 -26q20 -12 33.5 -18.5t24.5 -6.5q23 0 36.5 17t12.5 40h34q0 -44 -21 -70.5t-58 -26.5q-22 0 -42 9t-46 26q-20 12 -33.5 18.5t-24.5 6.5q-23 0 -36.5 -17t-12.5 -40h-34q0 44 21 70.5zM229 980v42h292v-42
h-292z" />
    <glyph glyph-name="OE" unicode="&#x152;" horiz-adv-x="1046" 
d="M156 91.5q-89 91.5 -89 261.5t89 261t255 91h579v-39h-383v-289h363v-39h-363v-299h383v-39h-579q-166 0 -255 91.5zM566 39v627h-153q-301 0 -301 -313q0 -156 75.5 -235t225.5 -79h153z" />
    <glyph glyph-name="P" unicode="P" horiz-adv-x="632" 
d="M96 705h254q109 0 169 -52t60 -148t-60.5 -149t-168.5 -53h-213v-303h-41v705zM349 343q93 0 139.5 41t46.5 121t-46.5 120.5t-139.5 40.5h-212v-323h212z" />
    <glyph glyph-name="Thorn" unicode="&#xde;" horiz-adv-x="632" 
d="M522.5 495.5q56.5 -47.5 56.5 -135.5t-57 -137t-161 -49h-223v-174h-42v705h42v-162h223q105 0 161.5 -47.5zM492 250q43 36 43 110q0 73 -43 108.5t-131 35.5h-223v-290h223q88 0 131 36z" />
    <glyph glyph-name="Q" unicode="Q" horiz-adv-x="751" 
d="M509 -20q17 -17 35 -48l62 -100l-33 -22l-72 116q-40 66 -126 66q-94 0 -163.5 43.5t-107 125t-37.5 191.5q0 111 37 192.5t106.5 125t164.5 43.5t164.5 -43.5t107 -124.5t37.5 -192q0 -136 -56 -227.5t-157 -121.5q21 -7 38 -24zM181 117q69 -84 194 -84q126 0 195 84
t69 236t-68.5 235.5t-195.5 83.5q-125 0 -194 -83.5t-69 -235.5t69 -236z" />
    <glyph glyph-name="R" unicode="R" horiz-adv-x="677" 
d="M620 0h-46l-119 226q-26 50 -60 68t-95 18h-163v-312h-41v705h272q109 0 168.5 -49.5t59.5 -145.5q0 -82 -48.5 -131t-137.5 -59q25 -8 44.5 -27t37.5 -51zM369 352q183 0 183 159q0 78 -45 116.5t-138 38.5h-231v-314h231z" />
    <glyph glyph-name="Racute" unicode="&#x154;" horiz-adv-x="677" 
d="M620 0h-46l-119 226q-26 50 -60 68t-95 18h-163v-312h-41v705h272q109 0 168.5 -49.5t59.5 -145.5q0 -82 -48.5 -131t-137.5 -59q25 -8 44.5 -27t37.5 -51zM369 352q183 0 183 159q0 78 -45 116.5t-138 38.5h-231v-314h231zM352 765h-36l100 149h60z" />
    <glyph glyph-name="Rcaron" unicode="&#x158;" horiz-adv-x="677" 
d="M620 0h-46l-119 226q-26 50 -60 68t-95 18h-163v-312h-41v705h272q109 0 168.5 -49.5t59.5 -145.5q0 -82 -48.5 -131t-137.5 -59q25 -8 44.5 -27t37.5 -51zM369 352q183 0 183 159q0 78 -45 116.5t-138 38.5h-231v-314h231zM413 914h51l-112 -149h-36l-112 149h51
l79 -113z" />
    <glyph glyph-name="Rcommaaccent" unicode="&#x156;" horiz-adv-x="677" 
d="M620 0h-46l-119 226q-26 50 -60 68t-95 18h-163v-312h-41v705h272q109 0 168.5 -49.5t59.5 -145.5q0 -82 -48.5 -131t-137.5 -59q25 -8 44.5 -27t37.5 -51zM369 352q183 0 183 159q0 78 -45 116.5t-138 38.5h-231v-314h231zM369 -76v-54q0 -36 -10.5 -65.5t-35.5 -54.5
l-27 21q20 22 27.5 42.5t8.5 45.5h-33v65h70z" />
    <glyph glyph-name="uni0210" unicode="&#x210;" horiz-adv-x="677" 
d="M620 0h-46l-119 226q-26 50 -60 68t-95 18h-163v-312h-41v705h272q109 0 168.5 -49.5t59.5 -145.5q0 -82 -48.5 -131t-137.5 -59q25 -8 44.5 -27t37.5 -51zM369 352q183 0 183 159q0 78 -45 116.5t-138 38.5h-231v-314h231zM266 765l-96 149h53l70 -149h-27zM375 765
l-97 149h54l70 -149h-27z" />
    <glyph glyph-name="uni1E5A" unicode="&#x1e5a;" horiz-adv-x="677" 
d="M620 0h-46l-119 226q-26 50 -60 68t-95 18h-163v-312h-41v705h272q109 0 168.5 -49.5t59.5 -145.5q0 -82 -48.5 -131t-137.5 -59q25 -8 44.5 -27t37.5 -51zM369 352q183 0 183 159q0 78 -45 116.5t-138 38.5h-231v-314h231zM301 -109h66v-64h-66v64z" />
    <glyph glyph-name="uni0212" unicode="&#x212;" horiz-adv-x="677" 
d="M620 0h-46l-119 226q-26 50 -60 68t-95 18h-163v-312h-41v705h272q109 0 168.5 -49.5t59.5 -145.5q0 -82 -48.5 -131t-137.5 -59q25 -8 44.5 -27t37.5 -51zM369 352q183 0 183 159q0 78 -45 116.5t-138 38.5h-231v-314h231zM425.5 877.5q40.5 -24.5 62.5 -80.5l-40 -17
q-26 47 -52 64t-62 17t-62 -17t-52 -64l-40 17q43 105 154 105q51 0 91.5 -24.5z" />
    <glyph glyph-name="uni1E5E" unicode="&#x1e5e;" horiz-adv-x="677" 
d="M620 0h-46l-119 226q-26 50 -60 68t-95 18h-163v-312h-41v705h272q109 0 168.5 -49.5t59.5 -145.5q0 -82 -48.5 -131t-137.5 -59q25 -8 44.5 -27t37.5 -51zM369 352q183 0 183 159q0 78 -45 116.5t-138 38.5h-231v-314h231zM188 -162v43h292v-43h-292z" />
    <glyph glyph-name="S" unicode="S" horiz-adv-x="598" 
d="M163 15q-62 23 -112 72l21 35q53 -49 106 -69t130 -20q95 0 147 39.5t52 112.5q0 42 -26 68t-64 39.5t-102 28.5q-86 21 -132.5 37.5t-83 55t-36.5 104.5q0 59 29.5 103t85 68t129.5 24q145 0 237 -95l-21 -35q-50 47 -101.5 68t-114.5 21q-95 0 -148 -41t-53 -115
q0 -64 46 -94.5t129 -51.5l43 -10q72 -16 117 -32.5t76.5 -51.5t31.5 -94q0 -56 -30 -99t-84.5 -67t-126.5 -24q-83 0 -145 23z" />
    <glyph glyph-name="Sacute" unicode="&#x15a;" horiz-adv-x="598" 
d="M163 15q-62 23 -112 72l21 35q53 -49 106 -69t130 -20q95 0 147 39.5t52 112.5q0 42 -26 68t-64 39.5t-102 28.5q-86 21 -132.5 37.5t-83 55t-36.5 104.5q0 59 29.5 103t85 68t129.5 24q145 0 237 -95l-21 -35q-50 47 -101.5 68t-114.5 21q-95 0 -148 -41t-53 -115
q0 -64 46 -94.5t129 -51.5l43 -10q72 -16 117 -32.5t76.5 -51.5t31.5 -94q0 -56 -30 -99t-84.5 -67t-126.5 -24q-83 0 -145 23zM317 765h-36l100 149h60z" />
    <glyph glyph-name="uni1E64" unicode="&#x1e64;" horiz-adv-x="598" 
d="M163 15q-62 23 -112 72l21 35q53 -49 106 -69t130 -20q95 0 147 39.5t52 112.5q0 42 -26 68t-64 39.5t-102 28.5q-86 21 -132.5 37.5t-83 55t-36.5 104.5q0 59 29.5 103t85 68t129.5 24q145 0 237 -95l-21 -35q-50 47 -101.5 68t-114.5 21q-95 0 -148 -41t-53 -115
q0 -64 46 -94.5t129 -51.5l43 -10q72 -16 117 -32.5t76.5 -51.5t31.5 -94q0 -56 -30 -99t-84.5 -67t-126.5 -24q-83 0 -145 23zM314 765h-36l100 149h60zM159 914h64v-63h-64v63z" />
    <glyph glyph-name="Scaron" unicode="&#x160;" horiz-adv-x="598" 
d="M163 15q-62 23 -112 72l21 35q53 -49 106 -69t130 -20q95 0 147 39.5t52 112.5q0 42 -26 68t-64 39.5t-102 28.5q-86 21 -132.5 37.5t-83 55t-36.5 104.5q0 59 29.5 103t85 68t129.5 24q145 0 237 -95l-21 -35q-50 47 -101.5 68t-114.5 21q-95 0 -148 -41t-53 -115
q0 -64 46 -94.5t129 -51.5l43 -10q72 -16 117 -32.5t76.5 -51.5t31.5 -94q0 -56 -30 -99t-84.5 -67t-126.5 -24q-83 0 -145 23zM378 914h51l-112 -149h-36l-112 149h51l79 -113z" />
    <glyph glyph-name="uni1E66" unicode="&#x1e66;" horiz-adv-x="598" 
d="M163 15q-62 23 -112 72l21 35q53 -49 106 -69t130 -20q95 0 147 39.5t52 112.5q0 42 -26 68t-64 39.5t-102 28.5q-86 21 -132.5 37.5t-83 55t-36.5 104.5q0 59 29.5 103t85 68t129.5 24q145 0 237 -95l-21 -35q-50 47 -101.5 68t-114.5 21q-95 0 -148 -41t-53 -115
q0 -64 46 -94.5t129 -51.5l43 -10q72 -16 117 -32.5t76.5 -51.5t31.5 -94q0 -56 -30 -99t-84.5 -67t-126.5 -24q-83 0 -145 23zM378 914h51l-112 -149h-36l-112 149h51l79 -113zM267 1032h64v-63h-64v63z" />
    <glyph glyph-name="Scedilla" unicode="&#x15e;" horiz-adv-x="598" 
d="M520.5 84.5q-28.5 -42.5 -81 -67t-122.5 -25.5l-3 -37q12 4 30 4q29 0 50.5 -17t21.5 -52t-28 -57.5t-77 -22.5q-21 0 -44.5 4.5t-40.5 14.5l14 34q32 -14 73 -14q30 0 45.5 11t15.5 30q0 15 -9.5 23t-27.5 8q-21 0 -50 -11l-19 14l7 69q-70 4 -124.5 27t-99.5 67l21 35
q53 -49 106 -69t130 -20q95 0 147 39.5t52 112.5q0 42 -26 68t-64 39.5t-102 28.5q-86 21 -132.5 37.5t-83 55t-36.5 104.5q0 59 29.5 103t85 68t129.5 24q145 0 237 -95l-21 -35q-50 47 -101.5 68t-114.5 21q-95 0 -148 -41t-53 -115q0 -64 46 -94.5t129 -51.5l43 -10
q72 -16 117 -32.5t76.5 -51.5t31.5 -94q0 -55 -28.5 -97.5z" />
    <glyph glyph-name="Scircumflex" unicode="&#x15c;" horiz-adv-x="598" 
d="M163 15q-62 23 -112 72l21 35q53 -49 106 -69t130 -20q95 0 147 39.5t52 112.5q0 42 -26 68t-64 39.5t-102 28.5q-86 21 -132.5 37.5t-83 55t-36.5 104.5q0 59 29.5 103t85 68t129.5 24q145 0 237 -95l-21 -35q-50 47 -101.5 68t-114.5 21q-95 0 -148 -41t-53 -115
q0 -64 46 -94.5t129 -51.5l43 -10q72 -16 117 -32.5t76.5 -51.5t31.5 -94q0 -56 -30 -99t-84.5 -67t-126.5 -24q-83 0 -145 23zM220 765h-51l112 149h36l112 -149h-51l-79 113z" />
    <glyph glyph-name="Scommaaccent" unicode="&#x218;" horiz-adv-x="598" 
d="M163 15q-62 23 -112 72l21 35q53 -49 106 -69t130 -20q95 0 147 39.5t52 112.5q0 42 -26 68t-64 39.5t-102 28.5q-86 21 -132.5 37.5t-83 55t-36.5 104.5q0 59 29.5 103t85 68t129.5 24q145 0 237 -95l-21 -35q-50 47 -101.5 68t-114.5 21q-95 0 -148 -41t-53 -115
q0 -64 46 -94.5t129 -51.5l43 -10q72 -16 117 -32.5t76.5 -51.5t31.5 -94q0 -56 -30 -99t-84.5 -67t-126.5 -24q-83 0 -145 23zM340 -76v-54q0 -36 -10.5 -65.5t-35.5 -54.5l-27 21q20 22 27.5 42.5t8.5 45.5h-33v65h70z" />
    <glyph glyph-name="uni1E60" unicode="&#x1e60;" horiz-adv-x="598" 
d="M163 15q-62 23 -112 72l21 35q53 -49 106 -69t130 -20q95 0 147 39.5t52 112.5q0 42 -26 68t-64 39.5t-102 28.5q-86 21 -132.5 37.5t-83 55t-36.5 104.5q0 59 29.5 103t85 68t129.5 24q145 0 237 -95l-21 -35q-50 47 -101.5 68t-114.5 21q-95 0 -148 -41t-53 -115
q0 -64 46 -94.5t129 -51.5l43 -10q72 -16 117 -32.5t76.5 -51.5t31.5 -94q0 -56 -30 -99t-84.5 -67t-126.5 -24q-83 0 -145 23zM267 872h64v-63h-64v63z" />
    <glyph glyph-name="uni1E62" unicode="&#x1e62;" horiz-adv-x="598" 
d="M163 15q-62 23 -112 72l21 35q53 -49 106 -69t130 -20q95 0 147 39.5t52 112.5q0 42 -26 68t-64 39.5t-102 28.5q-86 21 -132.5 37.5t-83 55t-36.5 104.5q0 59 29.5 103t85 68t129.5 24q145 0 237 -95l-21 -35q-50 47 -101.5 68t-114.5 21q-95 0 -148 -41t-53 -115
q0 -64 46 -94.5t129 -51.5l43 -10q72 -16 117 -32.5t76.5 -51.5t31.5 -94q0 -56 -30 -99t-84.5 -67t-126.5 -24q-83 0 -145 23zM272 -109h66v-64h-66v64z" />
    <glyph glyph-name="uni1E68" unicode="&#x1e68;" horiz-adv-x="598" 
d="M163 15q-62 23 -112 72l21 35q53 -49 106 -69t130 -20q95 0 147 39.5t52 112.5q0 42 -26 68t-64 39.5t-102 28.5q-86 21 -132.5 37.5t-83 55t-36.5 104.5q0 59 29.5 103t85 68t129.5 24q145 0 237 -95l-21 -35q-50 47 -101.5 68t-114.5 21q-95 0 -148 -41t-53 -115
q0 -64 46 -94.5t129 -51.5l43 -10q72 -16 117 -32.5t76.5 -51.5t31.5 -94q0 -56 -30 -99t-84.5 -67t-126.5 -24q-83 0 -145 23zM272 -109h66v-64h-66v64zM267 872h64v-63h-64v63z" />
    <glyph glyph-name="uni1E9E" unicode="&#x1e9e;" horiz-adv-x="676" 
d="M567.5 306q38.5 -45 38.5 -115q0 -59 -26.5 -104t-75 -69.5t-112.5 -24.5q-50 0 -97.5 17.5t-83.5 49.5l21 38q40 -33 76.5 -48t76.5 -15q82 0 129.5 42t47.5 115q0 72 -48 109.5t-138 37.5h-141v39h104q84 0 131 39.5t47 111.5q0 67 -46 104.5t-127 37.5
q-106 0 -156 -52t-50 -163v-456h-42v464q0 125 61 186.5t186 61.5q100 0 158.5 -49t58.5 -134q0 -59 -27 -101t-77 -61q73 -16 111.5 -61z" />
    <glyph glyph-name="uni018F" unicode="&#x18f;" horiz-adv-x="728" 
d="M512 669.5q72 -43.5 110.5 -124.5t38.5 -192t-36 -192.5t-103.5 -125t-158.5 -43.5q-90 0 -157 43.5t-103 124t-36 188.5v31h549q-6 140 -77 217t-195 77q-67 0 -123.5 -22t-106.5 -68l-21 35q44 45 109.5 70t139.5 25q98 0 170 -43.5zM546.5 113q66.5 80 70.5 224h-506
q4 -143 70.5 -223.5t181.5 -80.5q117 0 183.5 80z" />
    <glyph glyph-name="T" unicode="T" horiz-adv-x="584" 
d="M271 0v667h-259v38h560v-38h-259v-667h-42z" />
    <glyph glyph-name="Tbar" unicode="&#x166;" horiz-adv-x="584" 
d="M572 667h-259v-290h146v-37h-146v-340h-42v340h-146v37h146v290h-259v38h560v-38z" />
    <glyph glyph-name="Tcaron" unicode="&#x164;" horiz-adv-x="584" 
d="M271 0v667h-259v38h560v-38h-259v-667h-42zM371 914h51l-112 -149h-36l-112 149h51l79 -113z" />
    <glyph glyph-name="uni0162" unicode="&#x162;" horiz-adv-x="584" 
d="M305 0l-4 -45q12 4 30 4q29 0 50.5 -17t21.5 -52t-28 -57.5t-77 -22.5q-21 0 -44.5 4.5t-40.5 14.5l14 34q32 -14 73 -14q30 0 45.5 11t15.5 30q0 15 -9.5 23t-27.5 8q-21 0 -50 -11l-19 14l10 96h6v647h-259v38h560v-38h-259v-667h-8z" />
    <glyph glyph-name="uni021A" unicode="&#x21a;" horiz-adv-x="584" 
d="M271 0v667h-259v38h560v-38h-259v-667h-42zM327 -76v-54q0 -36 -10.5 -65.5t-35.5 -54.5l-27 21q20 22 27.5 42.5t8.5 45.5h-33v65h70z" />
    <glyph glyph-name="uni1E6C" unicode="&#x1e6c;" horiz-adv-x="584" 
d="M271 0v667h-259v38h560v-38h-259v-667h-42zM259 -109h66v-64h-66v64z" />
    <glyph glyph-name="uni1E6E" unicode="&#x1e6e;" horiz-adv-x="584" 
d="M271 0v667h-259v38h560v-38h-259v-667h-42zM146 -162v43h292v-43h-292z" />
    <glyph glyph-name="U" unicode="U" horiz-adv-x="715" 
d="M158.5 61.5q-67.5 69.5 -67.5 205.5v438h41v-445q0 -227 226 -227q111 0 168 57t57 170v445h42v-438q0 -136 -68 -205.5t-199 -69.5q-132 0 -199.5 69.5z" />
    <glyph glyph-name="Uacute" unicode="&#xda;" horiz-adv-x="715" 
d="M158.5 61.5q-67.5 69.5 -67.5 205.5v438h41v-445q0 -227 226 -227q111 0 168 57t57 170v445h42v-438q0 -136 -68 -205.5t-199 -69.5q-132 0 -199.5 69.5zM376 765h-36l100 149h60z" />
    <glyph glyph-name="Ubreve" unicode="&#x16c;" horiz-adv-x="715" 
d="M158.5 61.5q-67.5 69.5 -67.5 205.5v438h41v-445q0 -227 226 -227q111 0 168 57t57 170v445h42v-438q0 -136 -68 -205.5t-199 -69.5q-132 0 -199.5 69.5zM266.5 802.5q-40.5 24.5 -62.5 80.5l40 18q26 -47 52 -64.5t62 -17.5t62 17.5t52 64.5l40 -18q-43 -105 -154 -105
q-51 0 -91.5 24.5z" />
    <glyph glyph-name="Ucircumflex" unicode="&#xdb;" horiz-adv-x="715" 
d="M158.5 61.5q-67.5 69.5 -67.5 205.5v438h41v-445q0 -227 226 -227q111 0 168 57t57 170v445h42v-438q0 -136 -68 -205.5t-199 -69.5q-132 0 -199.5 69.5zM279 765h-51l112 149h36l112 -149h-51l-79 113z" />
    <glyph glyph-name="uni0214" unicode="&#x214;" horiz-adv-x="715" 
d="M158.5 61.5q-67.5 69.5 -67.5 205.5v438h41v-445q0 -227 226 -227q111 0 168 57t57 170v445h42v-438q0 -136 -68 -205.5t-199 -69.5q-132 0 -199.5 69.5zM290 765l-96 149h53l70 -149h-27zM399 765l-97 149h54l70 -149h-27z" />
    <glyph glyph-name="Udieresis" unicode="&#xdc;" horiz-adv-x="715" 
d="M158.5 61.5q-67.5 69.5 -67.5 205.5v438h41v-445q0 -227 226 -227q111 0 168 57t57 170v445h42v-438q0 -136 -68 -205.5t-199 -69.5q-132 0 -199.5 69.5zM247 871h61v-60h-61v60zM408 871h61v-60h-61v60z" />
    <glyph glyph-name="uni1EE4" unicode="&#x1ee4;" horiz-adv-x="715" 
d="M158.5 61.5q-67.5 69.5 -67.5 205.5v438h41v-445q0 -227 226 -227q111 0 168 57t57 170v445h42v-438q0 -136 -68 -205.5t-199 -69.5q-132 0 -199.5 69.5zM325 -109h66v-64h-66v64z" />
    <glyph glyph-name="Ugrave" unicode="&#xd9;" horiz-adv-x="715" 
d="M158.5 61.5q-67.5 69.5 -67.5 205.5v438h41v-445q0 -227 226 -227q111 0 168 57t57 170v445h42v-438q0 -136 -68 -205.5t-199 -69.5q-132 0 -199.5 69.5zM340 765l-124 149h60l100 -149h-36z" />
    <glyph glyph-name="uni1EE6" unicode="&#x1ee6;" horiz-adv-x="715" 
d="M158.5 61.5q-67.5 69.5 -67.5 205.5v438h41v-445q0 -227 226 -227q111 0 168 57t57 170v445h42v-438q0 -136 -68 -205.5t-199 -69.5q-132 0 -199.5 69.5zM379 765h-41v15q0 18 10.5 28t30.5 22q14 8 20.5 13.5t6.5 13.5q0 10 -12 15t-33 5q-31 0 -63 -12l-12 38
q36 16 74 16q45 0 69.5 -17t24.5 -47q0 -19 -11.5 -29.5t-33.5 -22.5q-16 -8 -23 -14t-7 -15v-9z" />
    <glyph glyph-name="Uhorn" unicode="&#x1af;" horiz-adv-x="715" 
d="M745 832v-20q0 -61 -30.5 -97.5t-89.5 -44.5v-403q0 -136 -68 -205.5t-199 -69.5q-132 0 -199.5 69.5t-67.5 205.5v438h41v-445q0 -227 226 -227q111 0 168 57t57 170v445h12q58 1 83.5 27.5t25.5 86.5v13h41z" />
    <glyph glyph-name="uni1EE8" unicode="&#x1ee8;" horiz-adv-x="715" 
d="M745 832v-20q0 -61 -30.5 -97.5t-89.5 -44.5v-403q0 -136 -68 -205.5t-199 -69.5q-132 0 -199.5 69.5t-67.5 205.5v438h41v-445q0 -227 226 -227q111 0 168 57t57 170v445h12q58 1 83.5 27.5t25.5 86.5v13h41zM376 765h-36l100 149h60z" />
    <glyph glyph-name="uni1EF0" unicode="&#x1ef0;" horiz-adv-x="715" 
d="M745 832v-20q0 -61 -30.5 -97.5t-89.5 -44.5v-403q0 -136 -68 -205.5t-199 -69.5q-132 0 -199.5 69.5t-67.5 205.5v438h41v-445q0 -227 226 -227q111 0 168 57t57 170v445h12q58 1 83.5 27.5t25.5 86.5v13h41zM325 -109h66v-64h-66v64z" />
    <glyph glyph-name="uni1EEA" unicode="&#x1eea;" horiz-adv-x="715" 
d="M745 832v-20q0 -61 -30.5 -97.5t-89.5 -44.5v-403q0 -136 -68 -205.5t-199 -69.5q-132 0 -199.5 69.5t-67.5 205.5v438h41v-445q0 -227 226 -227q111 0 168 57t57 170v445h12q58 1 83.5 27.5t25.5 86.5v13h41zM340 765l-124 149h60l100 -149h-36z" />
    <glyph glyph-name="uni1EEC" unicode="&#x1eec;" horiz-adv-x="715" 
d="M745 832v-20q0 -61 -30.5 -97.5t-89.5 -44.5v-403q0 -136 -68 -205.5t-199 -69.5q-132 0 -199.5 69.5t-67.5 205.5v438h41v-445q0 -227 226 -227q111 0 168 57t57 170v445h12q58 1 83.5 27.5t25.5 86.5v13h41zM379 765h-41v15q0 18 10.5 28t30.5 22q14 8 20.5 13.5
t6.5 13.5q0 10 -12 15t-33 5q-31 0 -63 -12l-12 38q36 16 74 16q45 0 69.5 -17t24.5 -47q0 -19 -11.5 -29.5t-33.5 -22.5q-16 -8 -23 -14t-7 -15v-9z" />
    <glyph glyph-name="uni1EEE" unicode="&#x1eee;" horiz-adv-x="715" 
d="M745 832v-20q0 -61 -30.5 -97.5t-89.5 -44.5v-403q0 -136 -68 -205.5t-199 -69.5q-132 0 -199.5 69.5t-67.5 205.5v438h41v-445q0 -227 226 -227q111 0 168 57t57 170v445h12q58 1 83.5 27.5t25.5 86.5v13h41zM225 864.5q21 26.5 58 26.5q22 0 42 -9t46 -26
q20 -12 33.5 -18.5t24.5 -6.5q23 0 36.5 17t12.5 40h34q0 -44 -21 -70.5t-58 -26.5q-22 0 -42 9t-46 26q-20 12 -33.5 18.5t-24.5 6.5q-23 0 -36.5 -17t-12.5 -40h-34q0 44 21 70.5z" />
    <glyph glyph-name="Uhungarumlaut" unicode="&#x170;" horiz-adv-x="715" 
d="M158.5 61.5q-67.5 69.5 -67.5 205.5v438h41v-445q0 -227 226 -227q111 0 168 57t57 170v445h42v-438q0 -136 -68 -205.5t-199 -69.5q-132 0 -199.5 69.5zM301 765h-27l69 149h54zM442 765h-27l70 149h54z" />
    <glyph glyph-name="uni0216" unicode="&#x216;" horiz-adv-x="715" 
d="M158.5 61.5q-67.5 69.5 -67.5 205.5v438h41v-445q0 -227 226 -227q111 0 168 57t57 170v445h42v-438q0 -136 -68 -205.5t-199 -69.5q-132 0 -199.5 69.5zM449.5 877.5q40.5 -24.5 62.5 -80.5l-40 -17q-26 47 -52 64t-62 17t-62 -17t-52 -64l-40 17q43 105 154 105
q51 0 91.5 -24.5z" />
    <glyph glyph-name="Umacron" unicode="&#x16a;" horiz-adv-x="715" 
d="M158.5 61.5q-67.5 69.5 -67.5 205.5v438h41v-445q0 -227 226 -227q111 0 168 57t57 170v445h42v-438q0 -136 -68 -205.5t-199 -69.5q-132 0 -199.5 69.5zM212 820v42h292v-42h-292z" />
    <glyph glyph-name="uni1E7A" unicode="&#x1e7a;" horiz-adv-x="715" 
d="M158.5 61.5q-67.5 69.5 -67.5 205.5v438h41v-445q0 -227 226 -227q111 0 168 57t57 170v445h42v-438q0 -136 -68 -205.5t-199 -69.5q-132 0 -199.5 69.5zM212 820v42h292v-42h-292zM247 1031h61v-60h-61v60zM408 1031h61v-60h-61v60z" />
    <glyph glyph-name="Uogonek" unicode="&#x172;" horiz-adv-x="715" 
d="M625 705v-438q0 -209 -161 -261q-48 -15 -69 -36.5t-21 -53.5t18.5 -50t50.5 -18q23 0 59 19l16 -34q-31 -23 -77 -23q-50 0 -80.5 28t-30.5 74q0 51 38 80h-10q-132 0 -199.5 69.5t-67.5 205.5v438h41v-445q0 -227 226 -227q111 0 168 57t57 170v445h42z" />
    <glyph glyph-name="Uring" unicode="&#x16e;" horiz-adv-x="715" 
d="M158.5 61.5q-67.5 69.5 -67.5 205.5v438h41v-445q0 -227 226 -227q111 0 168 57t57 170v445h42v-438q0 -136 -68 -205.5t-199 -69.5q-132 0 -199.5 69.5zM289.5 787.5q-28.5 27.5 -28.5 67.5q0 39 28.5 66.5t68.5 27.5t68.5 -27.5t28.5 -66.5q0 -40 -28.5 -67.5
t-68.5 -27.5t-68.5 27.5zM394.5 817q14.5 15 14.5 38q0 22 -14.5 37t-36.5 15t-36.5 -15t-14.5 -37q0 -23 14.5 -38t36.5 -15t36.5 15z" />
    <glyph glyph-name="Utilde" unicode="&#x168;" horiz-adv-x="715" 
d="M158.5 61.5q-67.5 69.5 -67.5 205.5v438h41v-445q0 -227 226 -227q111 0 168 57t57 170v445h42v-438q0 -136 -68 -205.5t-199 -69.5q-132 0 -199.5 69.5zM225 864.5q21 26.5 58 26.5q22 0 42 -9t46 -26q20 -12 33.5 -18.5t24.5 -6.5q23 0 36.5 17t12.5 40h34
q0 -44 -21 -70.5t-58 -26.5q-22 0 -42 9t-46 26q-20 12 -33.5 18.5t-24.5 6.5q-23 0 -36.5 -17t-12.5 -40h-34q0 44 21 70.5z" />
    <glyph glyph-name="uni1E78" unicode="&#x1e78;" horiz-adv-x="715" 
d="M158.5 61.5q-67.5 69.5 -67.5 205.5v438h41v-445q0 -227 226 -227q111 0 168 57t57 170v445h42v-438q0 -136 -68 -205.5t-199 -69.5q-132 0 -199.5 69.5zM225 864.5q21 26.5 58 26.5q22 0 42 -9t46 -26q20 -12 33.5 -18.5t24.5 -6.5q23 0 36.5 17t12.5 40h34
q0 -44 -21 -70.5t-58 -26.5q-22 0 -42 9t-46 26q-20 12 -33.5 18.5t-24.5 6.5q-23 0 -36.5 -17t-12.5 -40h-34q0 44 21 70.5zM376 925h-36l100 149h60z" />
    <glyph glyph-name="V" unicode="V" horiz-adv-x="670" 
d="M615 705h44l-304 -705h-41l-302 705h43l280 -652z" />
    <glyph glyph-name="W" unicode="W" horiz-adv-x="1093" 
d="M1009 705h42l-244 -705h-39l-222 638l-222 -638h-38l-244 705h41l222 -645l223 645l36 -1l222 -643z" />
    <glyph glyph-name="Wacute" unicode="&#x1e82;" horiz-adv-x="1093" 
d="M1009 705h42l-244 -705h-39l-222 638l-222 -638h-38l-244 705h41l222 -645l223 645l36 -1l222 -643zM564 765h-36l100 149h60z" />
    <glyph glyph-name="Wcircumflex" unicode="&#x174;" horiz-adv-x="1093" 
d="M1009 705h42l-244 -705h-39l-222 638l-222 -638h-38l-244 705h41l222 -645l223 645l36 -1l222 -643zM467 765h-51l112 149h36l112 -149h-51l-79 113z" />
    <glyph glyph-name="Wdieresis" unicode="&#x1e84;" horiz-adv-x="1093" 
d="M1009 705h42l-244 -705h-39l-222 638l-222 -638h-38l-244 705h41l222 -645l223 645l36 -1l222 -643zM435 871h61v-60h-61v60zM596 871h61v-60h-61v60z" />
    <glyph glyph-name="Wgrave" unicode="&#x1e80;" horiz-adv-x="1093" 
d="M1009 705h42l-244 -705h-39l-222 638l-222 -638h-38l-244 705h41l222 -645l223 645l36 -1l222 -643zM528 765l-124 149h60l100 -149h-36z" />
    <glyph glyph-name="X" unicode="X" horiz-adv-x="630" 
d="M340 361l266 -361h-49l-241 330l-242 -330h-50l268 363l-252 342h49l228 -310l226 310h48z" />
    <glyph glyph-name="Y" unicode="Y" horiz-adv-x="581" 
d="M579 705l-268 -363v-342h-42v343l-268 362h49l241 -327l241 327h47z" />
    <glyph glyph-name="Yacute" unicode="&#xdd;" horiz-adv-x="581" 
d="M579 705l-268 -363v-342h-42v343l-268 362h49l241 -327l241 327h47zM308 765h-36l100 149h60z" />
    <glyph glyph-name="Ycircumflex" unicode="&#x176;" horiz-adv-x="581" 
d="M579 705l-268 -363v-342h-42v343l-268 362h49l241 -327l241 327h47zM211 765h-51l112 149h36l112 -149h-51l-79 113z" />
    <glyph glyph-name="Ydieresis" unicode="&#x178;" horiz-adv-x="581" 
d="M579 705l-268 -363v-342h-42v343l-268 362h49l241 -327l241 327h47zM179 871h61v-60h-61v60zM340 871h61v-60h-61v60z" />
    <glyph glyph-name="uni1E8E" unicode="&#x1e8e;" horiz-adv-x="581" 
d="M579 705l-268 -363v-342h-42v343l-268 362h49l241 -327l241 327h47zM258 872h64v-63h-64v63z" />
    <glyph glyph-name="uni1EF4" unicode="&#x1ef4;" horiz-adv-x="581" 
d="M579 705l-268 -363v-342h-42v343l-268 362h49l241 -327l241 327h47zM257 -109h66v-64h-66v64z" />
    <glyph glyph-name="Ygrave" unicode="&#x1ef2;" horiz-adv-x="581" 
d="M579 705l-268 -363v-342h-42v343l-268 362h49l241 -327l241 327h47zM272 765l-124 149h60l100 -149h-36z" />
    <glyph glyph-name="uni1EF6" unicode="&#x1ef6;" horiz-adv-x="581" 
d="M579 705l-268 -363v-342h-42v343l-268 362h49l241 -327l241 327h47zM311 765h-41v15q0 18 10.5 28t30.5 22q14 8 20.5 13.5t6.5 13.5q0 10 -12 15t-33 5q-31 0 -63 -12l-12 38q36 16 74 16q45 0 69.5 -17t24.5 -47q0 -19 -11.5 -29.5t-33.5 -22.5q-16 -8 -23 -14t-7 -15
v-9z" />
    <glyph glyph-name="uni0232" unicode="&#x232;" horiz-adv-x="581" 
d="M579 705l-268 -363v-342h-42v343l-268 362h49l241 -327l241 327h47zM144 820v42h292v-42h-292z" />
    <glyph glyph-name="uni1EF8" unicode="&#x1ef8;" horiz-adv-x="581" 
d="M579 705l-268 -363v-342h-42v343l-268 362h49l241 -327l241 327h47zM157 864.5q21 26.5 58 26.5q22 0 42 -9t46 -26q20 -12 33.5 -18.5t24.5 -6.5q23 0 36.5 17t12.5 40h34q0 -44 -21 -70.5t-58 -26.5q-22 0 -42 9t-46 26q-20 12 -33.5 18.5t-24.5 6.5q-23 0 -36.5 -17
t-12.5 -40h-34q0 44 21 70.5z" />
    <glyph glyph-name="Z" unicode="Z" horiz-adv-x="579" 
d="M541 39v-39h-475l-1 -2v2h-23v31l439 635h-439v39h466l1 2v-2h22v-31l-438 -635h448z" />
    <glyph glyph-name="Zacute" unicode="&#x179;" horiz-adv-x="579" 
d="M541 39v-39h-475l-1 -2v2h-23v31l439 635h-439v39h466l1 2v-2h22v-31l-438 -635h448zM306 765h-36l100 149h60z" />
    <glyph glyph-name="Zcaron" unicode="&#x17d;" horiz-adv-x="579" 
d="M541 39v-39h-475l-1 -2v2h-23v31l439 635h-439v39h466l1 2v-2h22v-31l-438 -635h448zM367 914h51l-112 -149h-36l-112 149h51l79 -113z" />
    <glyph glyph-name="Zdotaccent" unicode="&#x17b;" horiz-adv-x="579" 
d="M541 39v-39h-475l-1 -2v2h-23v31l439 635h-439v39h466l1 2v-2h22v-31l-438 -635h448zM256 872h64v-63h-64v63z" />
    <glyph glyph-name="uni1E92" unicode="&#x1e92;" horiz-adv-x="579" 
d="M541 39v-39h-475l-1 -2v2h-23v31l439 635h-439v39h466l1 2v-2h22v-31l-438 -635h448zM264 -109h66v-64h-66v64z" />
    <glyph glyph-name="Iacute_J.loclNLD" horiz-adv-x="530" 
d="M96 0v705h41v-705h-41zM135 765h-36l100 149h60zM223 32l51 4q56 4 87.5 42.5t31.5 100.5v526h41v-528q0 -80 -40.5 -127t-116.5 -52l-50 -4zM432 765h-36l100 149h60z" />
    <glyph glyph-name="a" unicode="a" horiz-adv-x="521" 
d="M438 317v-317h-43v89q-22 -46 -63.5 -71t-94.5 -25q-46 0 -84.5 19t-61 52.5t-22.5 73.5q0 54 28.5 83.5t94 42.5t183.5 13h20v42q0 71 -28 103.5t-89 32.5q-47 0 -86.5 -12.5t-82.5 -40.5l-20 36q37 27 85.5 42.5t97.5 15.5q166 0 166 -179zM318 56.5q36 21.5 56.5 59.5
t20.5 86v36h-19q-105 0 -160 -8.5t-77 -29t-22 -60.5q0 -46 34 -75.5t86 -29.5q45 0 81 21.5z" />
    <glyph glyph-name="aacute" unicode="&#xe1;" horiz-adv-x="521" 
d="M438 317v-317h-43v89q-22 -46 -63.5 -71t-94.5 -25q-46 0 -84.5 19t-61 52.5t-22.5 73.5q0 54 28.5 83.5t94 42.5t183.5 13h20v42q0 71 -28 103.5t-89 32.5q-47 0 -86.5 -12.5t-82.5 -40.5l-20 36q37 27 85.5 42.5t97.5 15.5q166 0 166 -179zM318 56.5q36 21.5 56.5 59.5
t20.5 86v36h-19q-105 0 -160 -8.5t-77 -29t-22 -60.5q0 -46 34 -75.5t86 -29.5q45 0 81 21.5zM289 549h-36l100 200h62z" />
    <glyph glyph-name="abreve" unicode="&#x103;" horiz-adv-x="521" 
d="M438 317v-317h-43v89q-22 -46 -63.5 -71t-94.5 -25q-46 0 -84.5 19t-61 52.5t-22.5 73.5q0 54 28.5 83.5t94 42.5t183.5 13h20v42q0 71 -28 103.5t-89 32.5q-47 0 -86.5 -12.5t-82.5 -40.5l-20 36q37 27 85.5 42.5t97.5 15.5q166 0 166 -179zM318 56.5q36 21.5 56.5 59.5
t20.5 86v36h-19q-105 0 -160 -8.5t-77 -29t-22 -60.5q0 -46 34 -75.5t86 -29.5q45 0 81 21.5zM181 611.5q-40 27.5 -63 88.5l40 17q22 -50 49.5 -71.5t63.5 -21.5t63.5 21.5t49.5 71.5l40 -16q-21 -61 -61.5 -89t-91.5 -28q-50 0 -90 27.5z" />
    <glyph glyph-name="uni1EAF" unicode="&#x1eaf;" horiz-adv-x="521" 
d="M438 317v-317h-43v89q-22 -46 -63.5 -71t-94.5 -25q-46 0 -84.5 19t-61 52.5t-22.5 73.5q0 54 28.5 83.5t94 42.5t183.5 13h20v42q0 71 -28 103.5t-89 32.5q-47 0 -86.5 -12.5t-82.5 -40.5l-20 36q37 27 85.5 42.5t97.5 15.5q166 0 166 -179zM318 56.5q36 21.5 56.5 59.5
t20.5 86v36h-19q-105 0 -160 -8.5t-77 -29t-22 -60.5q0 -46 34 -75.5t86 -29.5q45 0 81 21.5zM288 650h-34l99 142h61zM179.5 568.5q-40.5 24.5 -62.5 80.5l42 18q26 -47 51 -63.5t61 -16.5t61 16.5t51 63.5l42 -18q-43 -105 -154 -105q-51 0 -91.5 24.5z" />
    <glyph glyph-name="uni1EB7" unicode="&#x1eb7;" horiz-adv-x="521" 
d="M438 317v-317h-43v89q-22 -46 -63.5 -71t-94.5 -25q-46 0 -84.5 19t-61 52.5t-22.5 73.5q0 54 28.5 83.5t94 42.5t183.5 13h20v42q0 71 -28 103.5t-89 32.5q-47 0 -86.5 -12.5t-82.5 -40.5l-20 36q37 27 85.5 42.5t97.5 15.5q166 0 166 -179zM318 56.5q36 21.5 56.5 59.5
t20.5 86v36h-19q-105 0 -160 -8.5t-77 -29t-22 -60.5q0 -46 34 -75.5t86 -29.5q45 0 81 21.5zM235 -109h66v-64h-66v64zM181 611.5q-40 27.5 -63 88.5l40 17q22 -50 49.5 -71.5t63.5 -21.5t63.5 21.5t49.5 71.5l40 -16q-21 -61 -61.5 -89t-91.5 -28q-50 0 -90 27.5z" />
    <glyph glyph-name="uni1EB1" unicode="&#x1eb1;" horiz-adv-x="521" 
d="M438 317v-317h-43v89q-22 -46 -63.5 -71t-94.5 -25q-46 0 -84.5 19t-61 52.5t-22.5 73.5q0 54 28.5 83.5t94 42.5t183.5 13h20v42q0 71 -28 103.5t-89 32.5q-47 0 -86.5 -12.5t-82.5 -40.5l-20 36q37 27 85.5 42.5t97.5 15.5q166 0 166 -179zM318 56.5q36 21.5 56.5 59.5
t20.5 86v36h-19q-105 0 -160 -8.5t-77 -29t-22 -60.5q0 -46 34 -75.5t86 -29.5q45 0 81 21.5zM254 650l-126 142h61l99 -142h-34zM117 649l42 18q26 -47 51 -63.5t61 -16.5t61 16.5t51 63.5l42 -18q-22 -56 -62.5 -80.5t-91.5 -24.5q-111 0 -154 105z" />
    <glyph glyph-name="uni1EB3" unicode="&#x1eb3;" horiz-adv-x="521" 
d="M438 317v-317h-43v89q-22 -46 -63.5 -71t-94.5 -25q-46 0 -84.5 19t-61 52.5t-22.5 73.5q0 54 28.5 83.5t94 42.5t183.5 13h20v42q0 71 -28 103.5t-89 32.5q-47 0 -86.5 -12.5t-82.5 -40.5l-20 36q37 27 85.5 42.5t97.5 15.5q166 0 166 -179zM318 56.5q36 21.5 56.5 59.5
t20.5 86v36h-19q-105 0 -160 -8.5t-77 -29t-22 -60.5q0 -46 34 -75.5t86 -29.5q45 0 81 21.5zM292 650h-41v15q0 17 10.5 26.5t29.5 17.5q15 7 21.5 12t6.5 13q0 10 -12 15t-33 5q-31 0 -63 -12l-12 38q39 17 74 17q44 0 69 -17.5t25 -47.5q0 -17 -11 -26.5t-32 -18.5
q-16 -7 -24 -13t-8 -15v-9zM117 649l42 18q26 -47 51 -63.5t61 -16.5t61 16.5t51 63.5l42 -18q-22 -56 -62.5 -80.5t-91.5 -24.5q-111 0 -154 105z" />
    <glyph glyph-name="uni1EB5" unicode="&#x1eb5;" horiz-adv-x="521" 
d="M438 317v-317h-43v89q-22 -46 -63.5 -71t-94.5 -25q-46 0 -84.5 19t-61 52.5t-22.5 73.5q0 54 28.5 83.5t94 42.5t183.5 13h20v42q0 71 -28 103.5t-89 32.5q-47 0 -86.5 -12.5t-82.5 -40.5l-20 36q37 27 85.5 42.5t97.5 15.5q166 0 166 -179zM318 56.5q36 21.5 56.5 59.5
t20.5 86v36h-19q-105 0 -160 -8.5t-77 -29t-22 -60.5q0 -46 34 -75.5t86 -29.5q45 0 81 21.5zM138 774q21 27 58 27q22 0 41.5 -9t46.5 -27q39 -26 58 -26q23 0 36.5 18t12.5 41h34q0 -47 -21 -74t-58 -27q-22 0 -41.5 9t-46.5 27q-39 26 -58 26q-23 0 -36.5 -18t-12.5 -41
h-34q0 47 21 74zM117 649l42 18q26 -47 51 -63.5t61 -16.5t61 16.5t51 63.5l42 -18q-22 -56 -62.5 -80.5t-91.5 -24.5q-111 0 -154 105z" />
    <glyph glyph-name="uni01CE" unicode="&#x1ce;" horiz-adv-x="521" 
d="M438 317v-317h-43v89q-22 -46 -63.5 -71t-94.5 -25q-46 0 -84.5 19t-61 52.5t-22.5 73.5q0 54 28.5 83.5t94 42.5t183.5 13h20v42q0 71 -28 103.5t-89 32.5q-47 0 -86.5 -12.5t-82.5 -40.5l-20 36q37 27 85.5 42.5t97.5 15.5q166 0 166 -179zM318 56.5q36 21.5 56.5 59.5
t20.5 86v36h-19q-105 0 -160 -8.5t-77 -29t-22 -60.5q0 -46 34 -75.5t86 -29.5q45 0 81 21.5zM350 749h51l-111 -200h-38l-111 200h51l79 -158z" />
    <glyph glyph-name="acircumflex" unicode="&#xe2;" horiz-adv-x="521" 
d="M438 317v-317h-43v89q-22 -46 -63.5 -71t-94.5 -25q-46 0 -84.5 19t-61 52.5t-22.5 73.5q0 54 28.5 83.5t94 42.5t183.5 13h20v42q0 71 -28 103.5t-89 32.5q-47 0 -86.5 -12.5t-82.5 -40.5l-20 36q37 27 85.5 42.5t97.5 15.5q166 0 166 -179zM318 56.5q36 21.5 56.5 59.5
t20.5 86v36h-19q-105 0 -160 -8.5t-77 -29t-22 -60.5q0 -46 34 -75.5t86 -29.5q45 0 81 21.5zM192 549h-51l111 200h38l111 -200h-51l-79 158z" />
    <glyph glyph-name="uni1EA5" unicode="&#x1ea5;" horiz-adv-x="521" 
d="M438 317v-317h-43v89q-22 -46 -63.5 -71t-94.5 -25q-46 0 -84.5 19t-61 52.5t-22.5 73.5q0 54 28.5 83.5t94 42.5t183.5 13h20v42q0 71 -28 103.5t-89 32.5q-47 0 -86.5 -12.5t-82.5 -40.5l-20 36q37 27 85.5 42.5t97.5 15.5q166 0 166 -179zM318 56.5q36 21.5 56.5 59.5
t20.5 86v36h-19q-105 0 -160 -8.5t-77 -29t-22 -60.5q0 -46 34 -75.5t86 -29.5q45 0 81 21.5zM386 650h-36l103 142h62zM192 549h-51l112 152h36l112 -152h-51l-79 115z" />
    <glyph glyph-name="uni1EAD" unicode="&#x1ead;" horiz-adv-x="521" 
d="M438 317v-317h-43v89q-22 -46 -63.5 -71t-94.5 -25q-46 0 -84.5 19t-61 52.5t-22.5 73.5q0 54 28.5 83.5t94 42.5t183.5 13h20v42q0 71 -28 103.5t-89 32.5q-47 0 -86.5 -12.5t-82.5 -40.5l-20 36q37 27 85.5 42.5t97.5 15.5q166 0 166 -179zM318 56.5q36 21.5 56.5 59.5
t20.5 86v36h-19q-105 0 -160 -8.5t-77 -29t-22 -60.5q0 -46 34 -75.5t86 -29.5q45 0 81 21.5zM235 -109h66v-64h-66v64zM192 549h-51l111 200h38l111 -200h-51l-79 158z" />
    <glyph glyph-name="uni1EA7" unicode="&#x1ea7;" horiz-adv-x="521" 
d="M438 317v-317h-43v89q-22 -46 -63.5 -71t-94.5 -25q-46 0 -84.5 19t-61 52.5t-22.5 73.5q0 54 28.5 83.5t94 42.5t183.5 13h20v42q0 71 -28 103.5t-89 32.5q-47 0 -86.5 -12.5t-82.5 -40.5l-20 36q37 27 85.5 42.5t97.5 15.5q166 0 166 -179zM318 56.5q36 21.5 56.5 59.5
t20.5 86v36h-19q-105 0 -160 -8.5t-77 -29t-22 -60.5q0 -46 34 -75.5t86 -29.5q45 0 81 21.5zM393 650l-106 142h62l80 -142h-36zM192 549h-51l112 152h36l112 -152h-51l-79 115z" />
    <glyph glyph-name="uni1EA9" unicode="&#x1ea9;" horiz-adv-x="521" 
d="M438 317v-317h-43v89q-22 -46 -63.5 -71t-94.5 -25q-46 0 -84.5 19t-61 52.5t-22.5 73.5q0 54 28.5 83.5t94 42.5t183.5 13h20v42q0 71 -28 103.5t-89 32.5q-47 0 -86.5 -12.5t-82.5 -40.5l-20 36q37 27 85.5 42.5t97.5 15.5q166 0 166 -179zM318 56.5q36 21.5 56.5 59.5
t20.5 86v36h-19q-105 0 -160 -8.5t-77 -29t-22 -60.5q0 -46 34 -75.5t86 -29.5q45 0 81 21.5zM391 650h-42v15q0 17 11 26.5t30 17.5q15 7 21.5 12t6.5 13q0 10 -12.5 15t-33.5 5q-30 0 -62 -12l-12 38q39 17 73 17q45 0 70 -17.5t25 -47.5q0 -17 -11 -26.5t-32 -18.5
q-16 -7 -24 -13t-8 -15v-9zM192 549h-51l112 152h36l112 -152h-51l-79 115z" />
    <glyph glyph-name="uni1EAB" unicode="&#x1eab;" horiz-adv-x="521" 
d="M438 317v-317h-43v89q-22 -46 -63.5 -71t-94.5 -25q-46 0 -84.5 19t-61 52.5t-22.5 73.5q0 54 28.5 83.5t94 42.5t183.5 13h20v42q0 71 -28 103.5t-89 32.5q-47 0 -86.5 -12.5t-82.5 -40.5l-20 36q37 27 85.5 42.5t97.5 15.5q166 0 166 -179zM318 56.5q36 21.5 56.5 59.5
t20.5 86v36h-19q-105 0 -160 -8.5t-77 -29t-22 -60.5q0 -46 34 -75.5t86 -29.5q45 0 81 21.5zM138 783q21 26 58 26q22 0 41 -7t47 -21q15 -8 31 -14t27 -6q23 0 36.5 16.5t12.5 35.5h34q0 -43 -21 -69t-58 -26q-22 0 -41 7t-47 21q-20 10 -33.5 15.5t-24.5 5.5
q-23 0 -36.5 -17t-12.5 -36h-34q0 43 21 69zM192 549h-51l112 152h36l112 -152h-51l-79 115z" />
    <glyph glyph-name="uni0201" unicode="&#x201;" horiz-adv-x="521" 
d="M438 317v-317h-43v89q-22 -46 -63.5 -71t-94.5 -25q-46 0 -84.5 19t-61 52.5t-22.5 73.5q0 54 28.5 83.5t94 42.5t183.5 13h20v42q0 71 -28 103.5t-89 32.5q-47 0 -86.5 -12.5t-82.5 -40.5l-20 36q37 27 85.5 42.5t97.5 15.5q166 0 166 -179zM318 56.5q36 21.5 56.5 59.5
t20.5 86v36h-19q-105 0 -160 -8.5t-77 -29t-22 -60.5q0 -46 34 -75.5t86 -29.5q45 0 81 21.5zM202 549l-80 200h56l52 -200h-28zM312 549l-79 200h55l52 -200h-28z" />
    <glyph glyph-name="adieresis" unicode="&#xe4;" horiz-adv-x="521" 
d="M438 317v-317h-43v89q-22 -46 -63.5 -71t-94.5 -25q-46 0 -84.5 19t-61 52.5t-22.5 73.5q0 54 28.5 83.5t94 42.5t183.5 13h20v42q0 71 -28 103.5t-89 32.5q-47 0 -86.5 -12.5t-82.5 -40.5l-20 36q37 27 85.5 42.5t97.5 15.5q166 0 166 -179zM318 56.5q36 21.5 56.5 59.5
t20.5 86v36h-19q-105 0 -160 -8.5t-77 -29t-22 -60.5q0 -46 34 -75.5t86 -29.5q45 0 81 21.5zM160 680h61v-60h-61v60zM321 680h61v-60h-61v60z" />
    <glyph glyph-name="uni0227" unicode="&#x227;" horiz-adv-x="521" 
d="M438 317v-317h-43v89q-22 -46 -63.5 -71t-94.5 -25q-46 0 -84.5 19t-61 52.5t-22.5 73.5q0 54 28.5 83.5t94 42.5t183.5 13h20v42q0 71 -28 103.5t-89 32.5q-47 0 -86.5 -12.5t-82.5 -40.5l-20 36q37 27 85.5 42.5t97.5 15.5q166 0 166 -179zM318 56.5q36 21.5 56.5 59.5
t20.5 86v36h-19q-105 0 -160 -8.5t-77 -29t-22 -60.5q0 -46 34 -75.5t86 -29.5q45 0 81 21.5zM239 682h64v-63h-64v63z" />
    <glyph glyph-name="uni1EA1" unicode="&#x1ea1;" horiz-adv-x="521" 
d="M438 317v-317h-43v89q-22 -46 -63.5 -71t-94.5 -25q-46 0 -84.5 19t-61 52.5t-22.5 73.5q0 54 28.5 83.5t94 42.5t183.5 13h20v42q0 71 -28 103.5t-89 32.5q-47 0 -86.5 -12.5t-82.5 -40.5l-20 36q37 27 85.5 42.5t97.5 15.5q166 0 166 -179zM318 56.5q36 21.5 56.5 59.5
t20.5 86v36h-19q-105 0 -160 -8.5t-77 -29t-22 -60.5q0 -46 34 -75.5t86 -29.5q45 0 81 21.5zM235 -109h66v-64h-66v64z" />
    <glyph glyph-name="agrave" unicode="&#xe0;" horiz-adv-x="521" 
d="M438 317v-317h-43v89q-22 -46 -63.5 -71t-94.5 -25q-46 0 -84.5 19t-61 52.5t-22.5 73.5q0 54 28.5 83.5t94 42.5t183.5 13h20v42q0 71 -28 103.5t-89 32.5q-47 0 -86.5 -12.5t-82.5 -40.5l-20 36q37 27 85.5 42.5t97.5 15.5q166 0 166 -179zM318 56.5q36 21.5 56.5 59.5
t20.5 86v36h-19q-105 0 -160 -8.5t-77 -29t-22 -60.5q0 -46 34 -75.5t86 -29.5q45 0 81 21.5zM253 549l-126 200h62l100 -200h-36z" />
    <glyph glyph-name="uni1EA3" unicode="&#x1ea3;" horiz-adv-x="521" 
d="M438 317v-317h-43v89q-22 -46 -63.5 -71t-94.5 -25q-46 0 -84.5 19t-61 52.5t-22.5 73.5q0 54 28.5 83.5t94 42.5t183.5 13h20v42q0 71 -28 103.5t-89 32.5q-47 0 -86.5 -12.5t-82.5 -40.5l-20 36q37 27 85.5 42.5t97.5 15.5q166 0 166 -179zM318 56.5q36 21.5 56.5 59.5
t20.5 86v36h-19q-105 0 -160 -8.5t-77 -29t-22 -60.5q0 -46 34 -75.5t86 -29.5q45 0 81 21.5zM293 549h-40v30q0 19 10 33.5t29 33.5q14 13 21 22.5t7 19.5q0 12 -12 18.5t-33 6.5q-31 0 -64 -12l-12 36q37 17 77 17q42 0 66.5 -18t24.5 -47q0 -23 -9.5 -36t-29.5 -30
q-18 -16 -26.5 -28t-8.5 -31v-15z" />
    <glyph glyph-name="uni0203" unicode="&#x203;" horiz-adv-x="521" 
d="M438 317v-317h-43v89q-22 -46 -63.5 -71t-94.5 -25q-46 0 -84.5 19t-61 52.5t-22.5 73.5q0 54 28.5 83.5t94 42.5t183.5 13h20v42q0 71 -28 103.5t-89 32.5q-47 0 -86.5 -12.5t-82.5 -40.5l-20 36q37 27 85.5 42.5t97.5 15.5q166 0 166 -179zM318 56.5q36 21.5 56.5 59.5
t20.5 86v36h-19q-105 0 -160 -8.5t-77 -29t-22 -60.5q0 -46 34 -75.5t86 -29.5q45 0 81 21.5zM361 689q40 -28 63 -88l-40 -18q-22 50 -49.5 72t-63.5 22t-63.5 -22t-49.5 -72l-40 17q21 61 61.5 89t91.5 28q50 0 90 -28z" />
    <glyph glyph-name="amacron" unicode="&#x101;" horiz-adv-x="521" 
d="M438 317v-317h-43v89q-22 -46 -63.5 -71t-94.5 -25q-46 0 -84.5 19t-61 52.5t-22.5 73.5q0 54 28.5 83.5t94 42.5t183.5 13h20v42q0 71 -28 103.5t-89 32.5q-47 0 -86.5 -12.5t-82.5 -40.5l-20 36q37 27 85.5 42.5t97.5 15.5q166 0 166 -179zM318 56.5q36 21.5 56.5 59.5
t20.5 86v36h-19q-105 0 -160 -8.5t-77 -29t-22 -60.5q0 -46 34 -75.5t86 -29.5q45 0 81 21.5zM125 629v43h292v-43h-292z" />
    <glyph glyph-name="aogonek" unicode="&#x105;" horiz-adv-x="521" 
d="M486 -167q-31 -23 -77 -23q-50 0 -80.5 28t-30.5 74q0 42 25.5 73t71.5 45v59q-22 -46 -63.5 -71t-94.5 -25q-46 0 -84.5 19t-61 52.5t-22.5 73.5q0 54 28.5 83.5t94 42.5t183.5 13h20v42q0 71 -28 103.5t-89 32.5q-47 0 -86.5 -12.5t-82.5 -40.5l-20 36q37 27 85.5 42.5
t97.5 15.5q166 0 166 -179v-317h-3q-41 0 -67 -23.5t-26 -60.5q0 -32 18.5 -50t50.5 -18q22 0 60 19zM318 56.5q36 21.5 56.5 59.5t20.5 86v36h-19q-105 0 -160 -8.5t-77 -29t-22 -60.5q0 -46 34 -75.5t86 -29.5q45 0 81 21.5z" />
    <glyph glyph-name="aring" unicode="&#xe5;" horiz-adv-x="521" 
d="M438 317v-317h-43v89q-22 -46 -63.5 -71t-94.5 -25q-46 0 -84.5 19t-61 52.5t-22.5 73.5q0 54 28.5 83.5t94 42.5t183.5 13h20v42q0 71 -28 103.5t-89 32.5q-47 0 -86.5 -12.5t-82.5 -40.5l-20 36q37 27 85.5 42.5t97.5 15.5q166 0 166 -179zM318 56.5q36 21.5 56.5 59.5
t20.5 86v36h-19q-105 0 -160 -8.5t-77 -29t-22 -60.5q0 -46 34 -75.5t86 -29.5q45 0 81 21.5zM202.5 581.5q-28.5 27.5 -28.5 67.5t28.5 67.5t68.5 27.5t68.5 -27.5t28.5 -67.5t-28.5 -67.5t-68.5 -27.5t-68.5 27.5zM307.5 611.5q14.5 15.5 14.5 37.5q0 23 -14.5 38
t-36.5 15t-36.5 -15t-14.5 -38q0 -22 14.5 -37.5t36.5 -15.5t36.5 15.5z" />
    <glyph glyph-name="aringacute" unicode="&#x1fb;" horiz-adv-x="521" 
d="M203 583q-28 27 -28 67t28 67.5t68 27.5q31 0 57 -18l80 120h60l-118 -142q18 -26 18 -55q0 -39 -28.5 -66.5t-68.5 -27.5t-68 27zM234.5 688q-14.5 -15 -14.5 -38q0 -22 14.5 -37.5t36.5 -15.5t36.5 15.5t14.5 37.5q0 23 -14.5 38t-36.5 15t-36.5 -15zM438 317v-317h-43
v89q-22 -46 -63.5 -71t-94.5 -25q-46 0 -84.5 19t-61 52.5t-22.5 73.5q0 54 28.5 83.5t94 42.5t183.5 13h20v42q0 71 -28 103.5t-89 32.5q-47 0 -86.5 -12.5t-82.5 -40.5l-20 36q37 27 85.5 42.5t97.5 15.5q166 0 166 -179zM318 56.5q36 21.5 56.5 59.5t20.5 86v36h-19
q-105 0 -160 -8.5t-77 -29t-22 -60.5q0 -46 34 -75.5t86 -29.5q45 0 81 21.5z" />
    <glyph glyph-name="atilde" unicode="&#xe3;" horiz-adv-x="521" 
d="M438 317v-317h-43v89q-22 -46 -63.5 -71t-94.5 -25q-46 0 -84.5 19t-61 52.5t-22.5 73.5q0 54 28.5 83.5t94 42.5t183.5 13h20v42q0 71 -28 103.5t-89 32.5q-47 0 -86.5 -12.5t-82.5 -40.5l-20 36q37 27 85.5 42.5t97.5 15.5q166 0 166 -179zM318 56.5q36 21.5 56.5 59.5
t20.5 86v36h-19q-105 0 -160 -8.5t-77 -29t-22 -60.5q0 -46 34 -75.5t86 -29.5q45 0 81 21.5zM138 673.5q21 26.5 58 26.5q22 0 41.5 -8.5t46.5 -25.5q20 -12 33.5 -18.5t24.5 -6.5q23 0 36.5 17t12.5 39h34q0 -43 -21 -69.5t-58 -26.5q-22 0 -42 9t-46 26
q-20 12 -33.5 18.5t-24.5 6.5q-23 0 -36.5 -17t-12.5 -40h-34q0 43 21 69.5z" />
    <glyph glyph-name="ae" unicode="&#xe6;" horiz-adv-x="862" 
d="M812 238h-368q1 -98 49 -151t134 -53q81 0 157 63l20 -36q-30 -30 -79 -49t-97 -19q-76 0 -129 37t-77 106q-17 -67 -64 -105t-117 -38q-48 0 -87.5 19t-62 52t-22.5 74q0 54 28.5 84t95.5 42.5t187 12.5h20v37q0 74 -28.5 107.5t-92.5 33.5q-44 0 -84.5 -13t-85.5 -40
l-20 36q37 27 86.5 42.5t98.5 15.5q132 0 162 -107q27 51 74 79t107 28q92 0 143.5 -61.5t51.5 -172.5v-24zM498.5 409q-45.5 -48 -53.5 -132h326q-2 87 -42 133.5t-112 46.5q-73 0 -118.5 -48zM324 57q36 22 56 61.5t20 90.5v29h-19q-107 0 -162.5 -8.5t-78.5 -29
t-23 -60.5q0 -46 35 -75.5t90 -29.5q46 0 82 22z" />
    <glyph glyph-name="aeacute" unicode="&#x1fd;" horiz-adv-x="862" 
d="M812 238h-368q1 -98 49 -151t134 -53q81 0 157 63l20 -36q-30 -30 -79 -49t-97 -19q-76 0 -129 37t-77 106q-17 -67 -64 -105t-117 -38q-48 0 -87.5 19t-62 52t-22.5 74q0 54 28.5 84t95.5 42.5t187 12.5h20v37q0 74 -28.5 107.5t-92.5 33.5q-44 0 -84.5 -13t-85.5 -40
l-20 36q37 27 86.5 42.5t98.5 15.5q132 0 162 -107q27 51 74 79t107 28q92 0 143.5 -61.5t51.5 -172.5v-24zM498.5 409q-45.5 -48 -53.5 -132h326q-2 87 -42 133.5t-112 46.5q-73 0 -118.5 -48zM324 57q36 22 56 61.5t20 90.5v29h-19q-107 0 -162.5 -8.5t-78.5 -29
t-23 -60.5q0 -46 35 -75.5t90 -29.5q46 0 82 22zM441 549h-36l100 200h62z" />
    <glyph glyph-name="b" unicode="b" horiz-adv-x="565" 
d="M410 465q49 -31 76 -87t27 -131q0 -76 -27 -133.5t-76 -89t-113 -31.5q-61 0 -104.5 27t-65.5 78v-98h-42v705h42v-313q22 50 65.5 77t104.5 27q64 0 113 -31zM422 90q45 56 45 157q0 99 -45 153.5t-126 54.5t-125 -55t-44 -155q0 -101 44 -156t126 -55q80 0 125 56z" />
    <glyph glyph-name="c" unicode="c" horiz-adv-x="470" 
d="M157 24q-50 31 -77.5 88t-27.5 131q0 75 27.5 132.5t78 89t117.5 31.5q49 0 93 -17.5t72 -47.5l-20 -36q-38 32 -72 46.5t-72 14.5q-83 0 -131 -57t-48 -157q0 -98 47.5 -153t130.5 -55q38 0 72.5 14t72.5 46l20 -35q-29 -31 -74 -48.5t-92 -17.5q-67 0 -117 31z" />
    <glyph glyph-name="cacute" unicode="&#x107;" horiz-adv-x="470" 
d="M157 24q-50 31 -77.5 88t-27.5 131q0 75 27.5 132.5t78 89t117.5 31.5q49 0 93 -17.5t72 -47.5l-20 -36q-38 32 -72 46.5t-72 14.5q-83 0 -131 -57t-48 -157q0 -98 47.5 -153t130.5 -55q38 0 72.5 14t72.5 46l20 -35q-29 -31 -74 -48.5t-92 -17.5q-67 0 -117 31zM291 549
h-36l100 200h62z" />
    <glyph glyph-name="ccaron" unicode="&#x10d;" horiz-adv-x="470" 
d="M157 24q-50 31 -77.5 88t-27.5 131q0 75 27.5 132.5t78 89t117.5 31.5q49 0 93 -17.5t72 -47.5l-20 -36q-38 32 -72 46.5t-72 14.5q-83 0 -131 -57t-48 -157q0 -98 47.5 -153t130.5 -55q38 0 72.5 14t72.5 46l20 -35q-29 -31 -74 -48.5t-92 -17.5q-67 0 -117 31zM352 749
h51l-111 -200h-38l-111 200h51l79 -158z" />
    <glyph glyph-name="ccedilla" unicode="&#xe7;" horiz-adv-x="470" 
d="M347.5 48q34.5 14 72.5 46l20 -35q-27 -29 -69 -46.5t-88 -19.5l-3 -38q12 4 30 4q29 0 50.5 -17t21.5 -52t-28 -57.5t-77 -22.5q-21 0 -44.5 4.5t-40.5 14.5l14 34q32 -14 73 -14q30 0 45.5 11t15.5 30q0 15 -9.5 23t-27.5 8q-21 0 -50 -11l-19 14l7 71q-87 11 -138 78
t-51 170q0 75 27.5 132.5t78 89t117.5 31.5q49 0 93 -17.5t72 -47.5l-20 -36q-38 32 -72 46.5t-72 14.5q-83 0 -131 -57t-48 -157q0 -98 47.5 -153t130.5 -55q38 0 72.5 14z" />
    <glyph glyph-name="uni1E09" unicode="&#x1e09;" horiz-adv-x="470" 
d="M417 749l-126 -200h-36l100 200h62zM347.5 48q34.5 14 72.5 46l20 -35q-27 -29 -69 -46.5t-88 -19.5l-3 -38q12 4 30 4q29 0 50.5 -17t21.5 -52t-28 -57.5t-77 -22.5q-21 0 -44.5 4.5t-40.5 14.5l14 34q32 -14 73 -14q30 0 45.5 11t15.5 30q0 15 -9.5 23t-27.5 8
q-21 0 -50 -11l-19 14l7 71q-87 11 -138 78t-51 170q0 75 27.5 132.5t78 89t117.5 31.5q49 0 93 -17.5t72 -47.5l-20 -36q-38 32 -72 46.5t-72 14.5q-83 0 -131 -57t-48 -157q0 -98 47.5 -153t130.5 -55q38 0 72.5 14z" />
    <glyph glyph-name="ccircumflex" unicode="&#x109;" horiz-adv-x="470" 
d="M157 24q-50 31 -77.5 88t-27.5 131q0 75 27.5 132.5t78 89t117.5 31.5q49 0 93 -17.5t72 -47.5l-20 -36q-38 32 -72 46.5t-72 14.5q-83 0 -131 -57t-48 -157q0 -98 47.5 -153t130.5 -55q38 0 72.5 14t72.5 46l20 -35q-29 -31 -74 -48.5t-92 -17.5q-67 0 -117 31zM194 549
h-51l111 200h38l111 -200h-51l-79 158z" />
    <glyph glyph-name="cdotaccent" unicode="&#x10b;" horiz-adv-x="470" 
d="M157 24q-50 31 -77.5 88t-27.5 131q0 75 27.5 132.5t78 89t117.5 31.5q49 0 93 -17.5t72 -47.5l-20 -36q-38 32 -72 46.5t-72 14.5q-83 0 -131 -57t-48 -157q0 -98 47.5 -153t130.5 -55q38 0 72.5 14t72.5 46l20 -35q-29 -31 -74 -48.5t-92 -17.5q-67 0 -117 31zM241 682
h64v-63h-64v63z" />
    <glyph glyph-name="d" unicode="d" horiz-adv-x="565" 
d="M480 705v-705h-42v98q-22 -51 -65.5 -78t-104.5 -27q-64 0 -113 31.5t-76 89t-27 133.5q0 75 27 131t76 87t113 31q61 0 104.5 -27t65.5 -77v313h42zM394 89q44 55 44 156q0 100 -44 155t-125 55t-126.5 -54.5t-45.5 -153.5q0 -100 45.5 -156.5t125.5 -56.5q82 0 126 55z
" />
    <glyph glyph-name="eth" unicode="&#xf0;" horiz-adv-x="539" 
d="M487 282q0 -143 -55.5 -216t-163.5 -73q-65 0 -114 28.5t-75.5 81t-26.5 121.5t27 121.5t77 81t115 28.5q117 0 169 -90q-18 128 -103 211l-153 -64l-15 36l134 57q-61 45 -141 70l12 35q104 -34 169 -89l128 54l14 -37l-110 -46q112 -115 112 -310zM393 84.5
q46 50.5 46 139.5t-45.5 139.5t-125.5 50.5t-125.5 -50.5t-45.5 -139.5q0 -91 44.5 -140.5t125.5 -49.5q80 0 126 50.5z" />
    <glyph glyph-name="dcaron" unicode="&#x10f;" horiz-adv-x="565" 
d="M438 705h42v-705h-42v98q-22 -51 -65.5 -78t-104.5 -27q-64 0 -113 31.5t-76 89t-27 133.5q0 75 27 131t76 87t113 31q61 0 104.5 -27t65.5 -77v313zM517 705h57l-26 -188h-31v188zM394 89q44 55 44 156q0 100 -44 155t-125 55t-126.5 -54.5t-45.5 -153.5
q0 -100 45.5 -156.5t125.5 -56.5q82 0 126 55z" />
    <glyph glyph-name="dcroat" unicode="&#x111;" horiz-adv-x="565" 
d="M576 567h-96v-567h-42v98q-22 -51 -65.5 -78t-104.5 -27q-64 0 -113 31.5t-76 89t-27 133.5q0 75 27 131t76 87t113 31q61 0 104.5 -27t65.5 -77v175h-196v37h196v101h42v-101h96v-37zM394 89q44 55 44 156q0 100 -44 155t-125 55t-126.5 -54.5t-45.5 -153.5
q0 -100 45.5 -156.5t125.5 -56.5q82 0 126 55z" />
    <glyph glyph-name="uni1E0D" unicode="&#x1e0d;" horiz-adv-x="565" 
d="M480 705v-705h-42v98q-22 -51 -65.5 -78t-104.5 -27q-64 0 -113 31.5t-76 89t-27 133.5q0 75 27 131t76 87t113 31q61 0 104.5 -27t65.5 -77v313h42zM394 89q44 55 44 156q0 100 -44 155t-125 55t-126.5 -54.5t-45.5 -153.5q0 -100 45.5 -156.5t125.5 -56.5q82 0 126 55z
M252 -109h66v-64h-66v64z" />
    <glyph glyph-name="uni1E0F" unicode="&#x1e0f;" horiz-adv-x="565" 
d="M480 705v-705h-42v98q-22 -51 -65.5 -78t-104.5 -27q-64 0 -113 31.5t-76 89t-27 133.5q0 75 27 131t76 87t113 31q61 0 104.5 -27t65.5 -77v313h42zM394 89q44 55 44 156q0 100 -44 155t-125 55t-126.5 -54.5t-45.5 -153.5q0 -100 45.5 -156.5t125.5 -56.5q82 0 126 55z
M139 -162v43h292v-43h-292z" />
    <glyph glyph-name="uni01C6" unicode="&#x1c6;" horiz-adv-x="1061" 
d="M480 705v-705h-42v98q-22 -51 -65.5 -78t-104.5 -27q-64 0 -113 31.5t-76 89t-27 133.5q0 75 27 131t76 87t113 31q61 0 104.5 -27t65.5 -77v313h42zM394 89q44 55 44 156q0 100 -44 155t-125 55t-126.5 -54.5t-45.5 -153.5q0 -100 45.5 -156.5t125.5 -56.5q82 0 126 55z
M672 37h343v-37h-401v29l336 419h-321v36h374v-34zM894 749h51l-111 -200h-38l-111 200h51l79 -158z" />
    <glyph glyph-name="e" unicode="e" horiz-adv-x="524" 
d="M474 238h-376q2 -98 49.5 -151t135.5 -53q45 0 84.5 15t78.5 48l20 -36q-31 -31 -80 -49.5t-101 -18.5q-108 0 -170.5 67t-62.5 184q0 75 28 132t79 88.5t117 31.5q94 0 146 -61t52 -171v-26zM153.5 409.5q-46.5 -47.5 -54.5 -132.5h335q-2 87 -43 133.5t-115 46.5
q-76 0 -122.5 -47.5z" />
    <glyph glyph-name="eacute" unicode="&#xe9;" horiz-adv-x="524" 
d="M474 238h-376q2 -98 49.5 -151t135.5 -53q45 0 84.5 15t78.5 48l20 -36q-31 -31 -80 -49.5t-101 -18.5q-108 0 -170.5 67t-62.5 184q0 75 28 132t79 88.5t117 31.5q94 0 146 -61t52 -171v-26zM153.5 409.5q-46.5 -47.5 -54.5 -132.5h335q-2 87 -43 133.5t-115 46.5
q-76 0 -122.5 -47.5zM294 549h-36l100 200h62z" />
    <glyph glyph-name="ebreve" unicode="&#x115;" horiz-adv-x="524" 
d="M474 238h-376q2 -98 49.5 -151t135.5 -53q45 0 84.5 15t78.5 48l20 -36q-31 -31 -80 -49.5t-101 -18.5q-108 0 -170.5 67t-62.5 184q0 75 28 132t79 88.5t117 31.5q94 0 146 -61t52 -171v-26zM153.5 409.5q-46.5 -47.5 -54.5 -132.5h335q-2 87 -43 133.5t-115 46.5
q-76 0 -122.5 -47.5zM186 611.5q-40 27.5 -63 88.5l40 17q22 -50 49.5 -71.5t63.5 -21.5t63.5 21.5t49.5 71.5l40 -16q-21 -61 -61.5 -89t-91.5 -28q-50 0 -90 27.5z" />
    <glyph glyph-name="ecaron" unicode="&#x11b;" horiz-adv-x="524" 
d="M474 238h-376q2 -98 49.5 -151t135.5 -53q45 0 84.5 15t78.5 48l20 -36q-31 -31 -80 -49.5t-101 -18.5q-108 0 -170.5 67t-62.5 184q0 75 28 132t79 88.5t117 31.5q94 0 146 -61t52 -171v-26zM153.5 409.5q-46.5 -47.5 -54.5 -132.5h335q-2 87 -43 133.5t-115 46.5
q-76 0 -122.5 -47.5zM355 749h51l-111 -200h-38l-111 200h51l79 -158z" />
    <glyph glyph-name="uni1E1D" unicode="&#x1e1d;" horiz-adv-x="524" 
d="M186 611.5q-40 27.5 -63 88.5l40 17q22 -50 49.5 -71.5t63.5 -21.5t63.5 21.5t49.5 71.5l40 -16q-21 -61 -61.5 -89t-91.5 -28q-50 0 -90 27.5zM474 238h-376q2 -98 49.5 -151t135.5 -53q45 0 84.5 15t78.5 48l20 -36q-28 -29 -73.5 -47.5t-94.5 -20.5l-3 -38q12 4 30 4
q29 0 50.5 -17t21.5 -52t-28 -57.5t-77 -22.5q-21 0 -44.5 4.5t-40.5 14.5l14 34q32 -14 73 -14q30 0 45.5 11t15.5 30q0 15 -9.5 23t-27.5 8q-21 0 -50 -11l-19 14l7 70q-96 9 -150 75t-54 175q0 75 28 132t79 88.5t117 31.5q94 0 146 -61t52 -171v-26zM153.5 409.5
q-46.5 -47.5 -54.5 -132.5h335q-2 87 -43 133.5t-115 46.5q-76 0 -122.5 -47.5z" />
    <glyph glyph-name="ecircumflex" unicode="&#xea;" horiz-adv-x="524" 
d="M474 238h-376q2 -98 49.5 -151t135.5 -53q45 0 84.5 15t78.5 48l20 -36q-31 -31 -80 -49.5t-101 -18.5q-108 0 -170.5 67t-62.5 184q0 75 28 132t79 88.5t117 31.5q94 0 146 -61t52 -171v-26zM153.5 409.5q-46.5 -47.5 -54.5 -132.5h335q-2 87 -43 133.5t-115 46.5
q-76 0 -122.5 -47.5zM197 549h-51l111 200h38l111 -200h-51l-79 158z" />
    <glyph glyph-name="uni1EBF" unicode="&#x1ebf;" horiz-adv-x="524" 
d="M474 238h-376q2 -98 49.5 -151t135.5 -53q45 0 84.5 15t78.5 48l20 -36q-31 -31 -80 -49.5t-101 -18.5q-108 0 -170.5 67t-62.5 184q0 75 28 132t79 88.5t117 31.5q94 0 146 -61t52 -171v-26zM153.5 409.5q-46.5 -47.5 -54.5 -132.5h335q-2 87 -43 133.5t-115 46.5
q-76 0 -122.5 -47.5zM391 650h-36l103 142h62zM197 549h-51l112 152h36l112 -152h-51l-79 115z" />
    <glyph glyph-name="uni1EC7" unicode="&#x1ec7;" horiz-adv-x="524" 
d="M474 238h-376q2 -98 49.5 -151t135.5 -53q45 0 84.5 15t78.5 48l20 -36q-31 -31 -80 -49.5t-101 -18.5q-108 0 -170.5 67t-62.5 184q0 75 28 132t79 88.5t117 31.5q94 0 146 -61t52 -171v-26zM153.5 409.5q-46.5 -47.5 -54.5 -132.5h335q-2 87 -43 133.5t-115 46.5
q-76 0 -122.5 -47.5zM253 -109h66v-64h-66v64zM197 549h-51l111 200h38l111 -200h-51l-79 158z" />
    <glyph glyph-name="uni1EC1" unicode="&#x1ec1;" horiz-adv-x="524" 
d="M474 238h-376q2 -98 49.5 -151t135.5 -53q45 0 84.5 15t78.5 48l20 -36q-31 -31 -80 -49.5t-101 -18.5q-108 0 -170.5 67t-62.5 184q0 75 28 132t79 88.5t117 31.5q94 0 146 -61t52 -171v-26zM153.5 409.5q-46.5 -47.5 -54.5 -132.5h335q-2 87 -43 133.5t-115 46.5
q-76 0 -122.5 -47.5zM398 650l-106 142h62l80 -142h-36zM197 549h-51l112 152h36l112 -152h-51l-79 115z" />
    <glyph glyph-name="uni1EC3" unicode="&#x1ec3;" horiz-adv-x="524" 
d="M474 238h-376q2 -98 49.5 -151t135.5 -53q45 0 84.5 15t78.5 48l20 -36q-31 -31 -80 -49.5t-101 -18.5q-108 0 -170.5 67t-62.5 184q0 75 28 132t79 88.5t117 31.5q94 0 146 -61t52 -171v-26zM153.5 409.5q-46.5 -47.5 -54.5 -132.5h335q-2 87 -43 133.5t-115 46.5
q-76 0 -122.5 -47.5zM396 650h-42v15q0 17 11 26.5t30 17.5q15 7 21.5 12t6.5 13q0 10 -12.5 15t-33.5 5q-30 0 -62 -12l-12 38q39 17 73 17q45 0 70 -17.5t25 -47.5q0 -17 -11 -26.5t-32 -18.5q-16 -7 -24 -13t-8 -15v-9zM197 549h-51l112 152h36l112 -152h-51l-79 115z
" />
    <glyph glyph-name="uni1EC5" unicode="&#x1ec5;" horiz-adv-x="524" 
d="M474 238h-376q2 -98 49.5 -151t135.5 -53q45 0 84.5 15t78.5 48l20 -36q-31 -31 -80 -49.5t-101 -18.5q-108 0 -170.5 67t-62.5 184q0 75 28 132t79 88.5t117 31.5q94 0 146 -61t52 -171v-26zM153.5 409.5q-46.5 -47.5 -54.5 -132.5h335q-2 87 -43 133.5t-115 46.5
q-76 0 -122.5 -47.5zM143 783q21 26 58 26q22 0 41 -7t47 -21q15 -8 31 -14t27 -6q23 0 36.5 16.5t12.5 35.5h34q0 -43 -21 -69t-58 -26q-22 0 -41 7t-47 21q-20 10 -33.5 15.5t-24.5 5.5q-23 0 -36.5 -17t-12.5 -36h-34q0 43 21 69zM197 549h-51l112 152h36l112 -152h-51
l-79 115z" />
    <glyph glyph-name="uni0205" unicode="&#x205;" horiz-adv-x="524" 
d="M474 238h-376q2 -98 49.5 -151t135.5 -53q45 0 84.5 15t78.5 48l20 -36q-31 -31 -80 -49.5t-101 -18.5q-108 0 -170.5 67t-62.5 184q0 75 28 132t79 88.5t117 31.5q94 0 146 -61t52 -171v-26zM153.5 409.5q-46.5 -47.5 -54.5 -132.5h335q-2 87 -43 133.5t-115 46.5
q-76 0 -122.5 -47.5zM207 549l-80 200h56l52 -200h-28zM317 549l-79 200h55l52 -200h-28z" />
    <glyph glyph-name="edieresis" unicode="&#xeb;" horiz-adv-x="524" 
d="M474 238h-376q2 -98 49.5 -151t135.5 -53q45 0 84.5 15t78.5 48l20 -36q-31 -31 -80 -49.5t-101 -18.5q-108 0 -170.5 67t-62.5 184q0 75 28 132t79 88.5t117 31.5q94 0 146 -61t52 -171v-26zM153.5 409.5q-46.5 -47.5 -54.5 -132.5h335q-2 87 -43 133.5t-115 46.5
q-76 0 -122.5 -47.5zM165 680h61v-60h-61v60zM326 680h61v-60h-61v60z" />
    <glyph glyph-name="edotaccent" unicode="&#x117;" horiz-adv-x="524" 
d="M474 238h-376q2 -98 49.5 -151t135.5 -53q45 0 84.5 15t78.5 48l20 -36q-31 -31 -80 -49.5t-101 -18.5q-108 0 -170.5 67t-62.5 184q0 75 28 132t79 88.5t117 31.5q94 0 146 -61t52 -171v-26zM153.5 409.5q-46.5 -47.5 -54.5 -132.5h335q-2 87 -43 133.5t-115 46.5
q-76 0 -122.5 -47.5zM244 682h64v-63h-64v63z" />
    <glyph glyph-name="uni1EB9" unicode="&#x1eb9;" horiz-adv-x="524" 
d="M474 238h-376q2 -98 49.5 -151t135.5 -53q45 0 84.5 15t78.5 48l20 -36q-31 -31 -80 -49.5t-101 -18.5q-108 0 -170.5 67t-62.5 184q0 75 28 132t79 88.5t117 31.5q94 0 146 -61t52 -171v-26zM153.5 409.5q-46.5 -47.5 -54.5 -132.5h335q-2 87 -43 133.5t-115 46.5
q-76 0 -122.5 -47.5zM253 -109h66v-64h-66v64z" />
    <glyph glyph-name="egrave" unicode="&#xe8;" horiz-adv-x="524" 
d="M474 238h-376q2 -98 49.5 -151t135.5 -53q45 0 84.5 15t78.5 48l20 -36q-31 -31 -80 -49.5t-101 -18.5q-108 0 -170.5 67t-62.5 184q0 75 28 132t79 88.5t117 31.5q94 0 146 -61t52 -171v-26zM153.5 409.5q-46.5 -47.5 -54.5 -132.5h335q-2 87 -43 133.5t-115 46.5
q-76 0 -122.5 -47.5zM258 549l-126 200h62l100 -200h-36z" />
    <glyph glyph-name="uni1EBB" unicode="&#x1ebb;" horiz-adv-x="524" 
d="M474 238h-376q2 -98 49.5 -151t135.5 -53q45 0 84.5 15t78.5 48l20 -36q-31 -31 -80 -49.5t-101 -18.5q-108 0 -170.5 67t-62.5 184q0 75 28 132t79 88.5t117 31.5q94 0 146 -61t52 -171v-26zM153.5 409.5q-46.5 -47.5 -54.5 -132.5h335q-2 87 -43 133.5t-115 46.5
q-76 0 -122.5 -47.5zM298 549h-40v30q0 19 10 33.5t29 33.5q14 13 21 22.5t7 19.5q0 12 -12 18.5t-33 6.5q-31 0 -64 -12l-12 36q37 17 77 17q42 0 66.5 -18t24.5 -47q0 -23 -9.5 -36t-29.5 -30q-18 -16 -26.5 -28t-8.5 -31v-15z" />
    <glyph glyph-name="uni0207" unicode="&#x207;" horiz-adv-x="524" 
d="M474 238h-376q2 -98 49.5 -151t135.5 -53q45 0 84.5 15t78.5 48l20 -36q-31 -31 -80 -49.5t-101 -18.5q-108 0 -170.5 67t-62.5 184q0 75 28 132t79 88.5t117 31.5q94 0 146 -61t52 -171v-26zM153.5 409.5q-46.5 -47.5 -54.5 -132.5h335q-2 87 -43 133.5t-115 46.5
q-76 0 -122.5 -47.5zM366 689q40 -28 63 -88l-40 -18q-22 50 -49.5 72t-63.5 22t-63.5 -22t-49.5 -72l-40 17q21 61 61.5 89t91.5 28q50 0 90 -28z" />
    <glyph glyph-name="emacron" unicode="&#x113;" horiz-adv-x="524" 
d="M474 238h-376q2 -98 49.5 -151t135.5 -53q45 0 84.5 15t78.5 48l20 -36q-31 -31 -80 -49.5t-101 -18.5q-108 0 -170.5 67t-62.5 184q0 75 28 132t79 88.5t117 31.5q94 0 146 -61t52 -171v-26zM153.5 409.5q-46.5 -47.5 -54.5 -132.5h335q-2 87 -43 133.5t-115 46.5
q-76 0 -122.5 -47.5zM130 629v43h292v-43h-292z" />
    <glyph glyph-name="uni1E17" unicode="&#x1e17;" horiz-adv-x="524" 
d="M474 238h-376q2 -98 49.5 -151t135.5 -53q45 0 84.5 15t78.5 48l20 -36q-31 -31 -80 -49.5t-101 -18.5q-108 0 -170.5 67t-62.5 184q0 75 28 132t79 88.5t117 31.5q94 0 146 -61t52 -171v-26zM153.5 409.5q-46.5 -47.5 -54.5 -132.5h335q-2 87 -43 133.5t-115 46.5
q-76 0 -122.5 -47.5zM130 629v43h292v-43h-292zM294 744h-36l100 200h62z" />
    <glyph glyph-name="uni1E15" unicode="&#x1e15;" horiz-adv-x="524" 
d="M474 238h-376q2 -98 49.5 -151t135.5 -53q45 0 84.5 15t78.5 48l20 -36q-31 -31 -80 -49.5t-101 -18.5q-108 0 -170.5 67t-62.5 184q0 75 28 132t79 88.5t117 31.5q94 0 146 -61t52 -171v-26zM153.5 409.5q-46.5 -47.5 -54.5 -132.5h335q-2 87 -43 133.5t-115 46.5
q-76 0 -122.5 -47.5zM130 629v43h292v-43h-292zM258 744l-126 200h62l100 -200h-36z" />
    <glyph glyph-name="eogonek" unicode="&#x119;" horiz-adv-x="524" 
d="M474 238h-376q2 -98 49.5 -151t135.5 -53q45 0 84.5 15t78.5 48l20 -35q-7 -8 -16 -14.5t-32 -19.5q-53 -31 -74.5 -56t-21.5 -56q0 -32 18.5 -50t50.5 -18q23 0 59 19l16 -34q-31 -23 -77 -23q-50 0 -80.5 28t-30.5 74q0 49 38 84q-13 -3 -31 -3q-108 0 -170.5 67
t-62.5 184q0 75 28 132t79 88.5t117 31.5q94 0 146 -61t52 -171v-26zM153.5 409.5q-46.5 -47.5 -54.5 -132.5h335q-2 87 -43 133.5t-115 46.5q-76 0 -122.5 -47.5z" />
    <glyph glyph-name="uni1EBD" unicode="&#x1ebd;" horiz-adv-x="524" 
d="M474 238h-376q2 -98 49.5 -151t135.5 -53q45 0 84.5 15t78.5 48l20 -36q-31 -31 -80 -49.5t-101 -18.5q-108 0 -170.5 67t-62.5 184q0 75 28 132t79 88.5t117 31.5q94 0 146 -61t52 -171v-26zM153.5 409.5q-46.5 -47.5 -54.5 -132.5h335q-2 87 -43 133.5t-115 46.5
q-76 0 -122.5 -47.5zM143 673.5q21 26.5 58 26.5q22 0 41.5 -8.5t46.5 -25.5q20 -12 33.5 -18.5t24.5 -6.5q23 0 36.5 17t12.5 39h34q0 -43 -21 -69.5t-58 -26.5q-22 0 -42 9t-46 26q-20 12 -33.5 18.5t-24.5 6.5q-23 0 -36.5 -17t-12.5 -40h-34q0 43 21 69.5z" />
    <glyph glyph-name="uni0259" unicode="&#x259;" horiz-adv-x="524" 
d="M410.5 429.5q61.5 -66.5 61.5 -183.5q0 -77 -26.5 -134t-76 -88t-115.5 -31q-97 0 -150.5 61.5t-53.5 173.5v23h377q-1 98 -49 151t-134 53q-43 0 -83 -15t-83 -47l-20 35q34 31 84.5 49.5t99.5 18.5q107 0 168.5 -66.5zM373 79q44 47 52 133h-332q3 -87 45 -133.5
t117 -46.5q74 0 118 47z" />
    <glyph glyph-name="f" unicode="f" horiz-adv-x="302" 
d="M147 484h146v-36h-146v-448h-42v448h-97v36h97v31q0 91 43.5 138t131.5 52l31 2l5 -37l-46 -3q-63 -4 -93 -42t-30 -110v-31z" />
    <glyph glyph-name="g" unicode="g" horiz-adv-x="569" 
d="M484 484v-461q0 -104 -49 -157t-146 -53q-121 0 -205 69l20 35q50 -36 90 -49.5t96 -13.5q75 0 114 41.5t39 121.5v105q-21 -52 -65.5 -79.5t-107.5 -27.5q-64 0 -113.5 30t-77 85t-27.5 126t27.5 125.5t77 84.5t113.5 30q62 0 106 -27t66 -77v92h42zM396.5 109.5
q45.5 53.5 45.5 146.5t-45.5 146t-126.5 53q-80 0 -126.5 -53t-46.5 -146q0 -94 46.5 -147t126.5 -53q81 0 126.5 53.5z" />
    <glyph glyph-name="gbreve" unicode="&#x11f;" horiz-adv-x="569" 
d="M484 484v-461q0 -104 -49 -157t-146 -53q-121 0 -205 69l20 35q50 -36 90 -49.5t96 -13.5q75 0 114 41.5t39 121.5v105q-21 -52 -65.5 -79.5t-107.5 -27.5q-64 0 -113.5 30t-77 85t-27.5 126t27.5 125.5t77 84.5t113.5 30q62 0 106 -27t66 -77v92h42zM396.5 109.5
q45.5 53.5 45.5 146.5t-45.5 146t-126.5 53q-80 0 -126.5 -53t-46.5 -146q0 -94 46.5 -147t126.5 -53q81 0 126.5 53.5zM197 611.5q-40 27.5 -63 88.5l40 17q22 -50 49.5 -71.5t63.5 -21.5t63.5 21.5t49.5 71.5l40 -16q-21 -61 -61.5 -89t-91.5 -28q-50 0 -90 27.5z" />
    <glyph glyph-name="gcaron" unicode="&#x1e7;" horiz-adv-x="569" 
d="M484 484v-461q0 -104 -49 -157t-146 -53q-121 0 -205 69l20 35q50 -36 90 -49.5t96 -13.5q75 0 114 41.5t39 121.5v105q-21 -52 -65.5 -79.5t-107.5 -27.5q-64 0 -113.5 30t-77 85t-27.5 126t27.5 125.5t77 84.5t113.5 30q62 0 106 -27t66 -77v92h42zM396.5 109.5
q45.5 53.5 45.5 146.5t-45.5 146t-126.5 53q-80 0 -126.5 -53t-46.5 -146q0 -94 46.5 -147t126.5 -53q81 0 126.5 53.5zM366 749h51l-111 -200h-38l-111 200h51l79 -158z" />
    <glyph glyph-name="gcircumflex" unicode="&#x11d;" horiz-adv-x="569" 
d="M484 484v-461q0 -104 -49 -157t-146 -53q-121 0 -205 69l20 35q50 -36 90 -49.5t96 -13.5q75 0 114 41.5t39 121.5v105q-21 -52 -65.5 -79.5t-107.5 -27.5q-64 0 -113.5 30t-77 85t-27.5 126t27.5 125.5t77 84.5t113.5 30q62 0 106 -27t66 -77v92h42zM396.5 109.5
q45.5 53.5 45.5 146.5t-45.5 146t-126.5 53q-80 0 -126.5 -53t-46.5 -146q0 -94 46.5 -147t126.5 -53q81 0 126.5 53.5zM208 549h-51l111 200h38l111 -200h-51l-79 158z" />
    <glyph glyph-name="gcommaaccent" unicode="&#x123;" horiz-adv-x="569" 
d="M484 484v-461q0 -104 -49 -157t-146 -53q-121 0 -205 69l20 35q50 -36 90 -49.5t96 -13.5q75 0 114 41.5t39 121.5v105q-21 -52 -65.5 -79.5t-107.5 -27.5q-64 0 -113.5 30t-77 85t-27.5 126t27.5 125.5t77 84.5t113.5 30q62 0 106 -27t66 -77v92h42zM396.5 109.5
q45.5 53.5 45.5 146.5t-45.5 146t-126.5 53q-80 0 -126.5 -53t-46.5 -146q0 -94 46.5 -147t126.5 -53q81 0 126.5 53.5zM297.5 688.5q-7.5 -20.5 -8.5 -45.5h33v-65h-70v54q0 36 10 65.5t36 55.5l27 -22q-20 -22 -27.5 -42.5z" />
    <glyph glyph-name="gdotaccent" unicode="&#x121;" horiz-adv-x="569" 
d="M484 484v-461q0 -104 -49 -157t-146 -53q-121 0 -205 69l20 35q50 -36 90 -49.5t96 -13.5q75 0 114 41.5t39 121.5v105q-21 -52 -65.5 -79.5t-107.5 -27.5q-64 0 -113.5 30t-77 85t-27.5 126t27.5 125.5t77 84.5t113.5 30q62 0 106 -27t66 -77v92h42zM396.5 109.5
q45.5 53.5 45.5 146.5t-45.5 146t-126.5 53q-80 0 -126.5 -53t-46.5 -146q0 -94 46.5 -147t126.5 -53q81 0 126.5 53.5zM255 682h64v-63h-64v63z" />
    <glyph glyph-name="uni1E21" unicode="&#x1e21;" horiz-adv-x="569" 
d="M484 484v-461q0 -104 -49 -157t-146 -53q-121 0 -205 69l20 35q50 -36 90 -49.5t96 -13.5q75 0 114 41.5t39 121.5v105q-21 -52 -65.5 -79.5t-107.5 -27.5q-64 0 -113.5 30t-77 85t-27.5 126t27.5 125.5t77 84.5t113.5 30q62 0 106 -27t66 -77v92h42zM396.5 109.5
q45.5 53.5 45.5 146.5t-45.5 146t-126.5 53q-80 0 -126.5 -53t-46.5 -146q0 -94 46.5 -147t126.5 -53q81 0 126.5 53.5zM141 629v43h292v-43h-292z" />
    <glyph glyph-name="h" unicode="h" horiz-adv-x="553" 
d="M470 312v-312h-42v308q0 77 -31 112.5t-100 35.5q-77 0 -123.5 -47.5t-46.5 -126.5v-282h-42v705h42v-306q22 47 66 72t101 25q176 0 176 -184z" />
    <glyph glyph-name="hbar" unicode="&#x127;" horiz-adv-x="553" 
d="M470 312v-312h-42v308q0 77 -31 112.5t-100 35.5q-77 0 -123.5 -47.5t-46.5 -126.5v-282h-42v567h-96v37h96v101h42v-101h196v-37h-196v-168q22 47 66 72t101 25q176 0 176 -184z" />
    <glyph glyph-name="uni1E2B" unicode="&#x1e2b;" horiz-adv-x="553" 
d="M470 312v-312h-42v308q0 77 -31 112.5t-100 35.5q-77 0 -123.5 -47.5t-46.5 -126.5v-282h-42v705h42v-306q22 47 66 72t101 25q176 0 176 -184zM187 -174.5q-40 27.5 -63 88.5l40 17q22 -50 49.5 -71.5t63.5 -21.5t63.5 21.5t49.5 71.5l40 -16q-21 -61 -61.5 -89
t-91.5 -28q-50 0 -90 27.5z" />
    <glyph glyph-name="hcircumflex" unicode="&#x125;" horiz-adv-x="553" 
d="M470 312v-312h-42v308q0 77 -31 112.5t-100 35.5q-77 0 -123.5 -47.5t-46.5 -126.5v-282h-42v705h42v-306q22 47 66 72t101 25q176 0 176 -184zM27 765h-51l112 149h36l112 -149h-51l-79 113z" />
    <glyph glyph-name="uni1E25" unicode="&#x1e25;" horiz-adv-x="553" 
d="M470 312v-312h-42v308q0 77 -31 112.5t-100 35.5q-77 0 -123.5 -47.5t-46.5 -126.5v-282h-42v705h42v-306q22 47 66 72t101 25q176 0 176 -184zM244 -109h66v-64h-66v64z" />
    <glyph glyph-name="i" unicode="i" horiz-adv-x="212" 
d="M85 0v484h42v-484h-42zM74 682h64v-63h-64v63z" />
    <glyph glyph-name="dotlessi" unicode="&#x131;" horiz-adv-x="212" 
d="M85 0v484h42v-484h-42z" />
    <glyph glyph-name="iacute" unicode="&#xed;" horiz-adv-x="212" 
d="M85 0v484h42v-484h-42zM124 549h-36l100 200h62z" />
    <glyph glyph-name="ibreve" unicode="&#x12d;" horiz-adv-x="212" 
d="M85 0v484h42v-484h-42zM16 611.5q-40 27.5 -63 88.5l40 17q22 -50 49.5 -71.5t63.5 -21.5t63.5 21.5t49.5 71.5l40 -16q-21 -61 -61.5 -89t-91.5 -28q-50 0 -90 27.5z" />
    <glyph glyph-name="icircumflex" unicode="&#xee;" horiz-adv-x="212" 
d="M85 0v484h42v-484h-42zM27 549h-51l111 200h38l111 -200h-51l-79 158z" />
    <glyph glyph-name="uni0209" unicode="&#x209;" horiz-adv-x="212" 
d="M85 0v484h42v-484h-42zM37 549l-80 200h56l52 -200h-28zM147 549l-79 200h55l52 -200h-28z" />
    <glyph glyph-name="idieresis" unicode="&#xef;" horiz-adv-x="212" 
d="M85 0v484h42v-484h-42zM-5 680h61v-60h-61v60zM156 680h61v-60h-61v60z" />
    <glyph glyph-name="uni1E2F" unicode="&#x1e2f;" horiz-adv-x="212" 
d="M85 0v484h42v-484h-42zM-5 680h61v-60h-61v60zM156 680h61v-60h-61v60zM124 744h-36l100 200h62z" />
    <glyph glyph-name="i.loclTRK" horiz-adv-x="212" 
d="M85 0v484h42v-484h-42zM74 682h64v-63h-64v63z" />
    <glyph glyph-name="uni1ECB" unicode="&#x1ecb;" horiz-adv-x="212" 
d="M85 0v484h42v-484h-42zM74 682h64v-63h-64v63zM72 -109h66v-64h-66v64z" />
    <glyph glyph-name="igrave" unicode="&#xec;" horiz-adv-x="212" 
d="M85 0v484h42v-484h-42zM88 549l-126 200h62l100 -200h-36z" />
    <glyph glyph-name="uni1EC9" unicode="&#x1ec9;" horiz-adv-x="212" 
d="M85 0v484h42v-484h-42zM128 549h-40v30q0 19 10 33.5t29 33.5q14 13 21 22.5t7 19.5q0 12 -12 18.5t-33 6.5q-31 0 -64 -12l-12 36q37 17 77 17q42 0 66.5 -18t24.5 -47q0 -23 -9.5 -36t-29.5 -30q-18 -16 -26.5 -28t-8.5 -31v-15z" />
    <glyph glyph-name="uni020B" unicode="&#x20b;" horiz-adv-x="212" 
d="M85 0v484h42v-484h-42zM196 689q40 -28 63 -88l-40 -18q-22 50 -49.5 72t-63.5 22t-63.5 -22t-49.5 -72l-40 17q21 61 61.5 89t91.5 28q50 0 90 -28z" />
    <glyph glyph-name="imacron" unicode="&#x12b;" horiz-adv-x="212" 
d="M85 0v484h42v-484h-42zM-40 629v43h292v-43h-292z" />
    <glyph glyph-name="iogonek" unicode="&#x12f;" horiz-adv-x="212" 
d="M138 682v-63h-64v63h64zM175 -167q-32 -23 -77 -23q-50 0 -81 28.5t-31 73.5q0 40 26 72t73 47v453h42v-484h-3q-43 0 -68 -24.5t-25 -59.5q0 -32 19 -50t50 -18q26 0 59 19z" />
    <glyph glyph-name="itilde" unicode="&#x129;" horiz-adv-x="212" 
d="M85 0v484h42v-484h-42zM-27 673.5q21 26.5 58 26.5q22 0 41.5 -8.5t46.5 -25.5q20 -12 33.5 -18.5t24.5 -6.5q23 0 36.5 17t12.5 39h34q0 -43 -21 -69.5t-58 -26.5q-22 0 -42 9t-46 26q-20 12 -33.5 18.5t-24.5 6.5q-23 0 -36.5 -17t-12.5 -40h-34q0 43 21 69.5z" />
    <glyph glyph-name="j" unicode="j" horiz-adv-x="212" 
d="M127 -11q0 -77 -40.5 -120.5t-115.5 -48.5l-43 -3l-4 38l42 2q59 5 89 38t30 93v496h42v-495zM74 682h64v-63h-64v63z" />
    <glyph glyph-name="uni0237" unicode="&#x237;" horiz-adv-x="212" 
d="M127 -11q0 -77 -40.5 -120.5t-115.5 -48.5l-43 -3l-4 38l42 2q59 5 89 38t30 93v496h42v-495z" />
    <glyph glyph-name="jcircumflex" unicode="&#x135;" horiz-adv-x="212" 
d="M127 -11q0 -77 -40.5 -120.5t-115.5 -48.5l-43 -3l-4 38l42 2q59 5 89 38t30 93v496h42v-495zM27 549h-51l111 200h38l111 -200h-51l-79 158z" />
    <glyph glyph-name="k" unicode="k" horiz-adv-x="468" 
d="M469 0h-61l-281 239v-239h-42v705h42v-447l253 226h59l-264 -233z" />
    <glyph glyph-name="kcommaaccent" unicode="&#x137;" horiz-adv-x="468" 
d="M469 0h-61l-281 239v-239h-42v705h42v-447l253 226h59l-264 -233zM269 -76v-54q0 -36 -10.5 -65.5t-35.5 -54.5l-27 21q20 22 27.5 42.5t8.5 45.5h-33v65h70z" />
    <glyph glyph-name="kgreenlandic" unicode="&#x138;" horiz-adv-x="468" 
d="M469 0h-61l-281 239v-239h-42v484h42v-226l253 226h59l-264 -233z" />
    <glyph glyph-name="l" unicode="l" horiz-adv-x="212" 
d="M85 0v705h42v-705h-42z" />
    <glyph glyph-name="lacute" unicode="&#x13a;" horiz-adv-x="212" 
d="M85 0v705h42v-705h-42zM124 765h-36l100 149h60z" />
    <glyph glyph-name="lcaron" unicode="&#x13e;" horiz-adv-x="212" 
d="M85 0v705h42v-705h-42zM198 517h-30v188h56z" />
    <glyph glyph-name="lcommaaccent" unicode="&#x13c;" horiz-adv-x="212" 
d="M85 0v705h42v-705h-42zM141 -76v-54q0 -36 -10.5 -65.5t-35.5 -54.5l-27 21q20 22 27.5 42.5t8.5 45.5h-33v65h70z" />
    <glyph glyph-name="ldot" unicode="&#x140;" horiz-adv-x="199" 
d="M85 0v705h42v-705h-42zM169 387h69v-68h-69v68z" />
    <glyph glyph-name="uni1E37" unicode="&#x1e37;" horiz-adv-x="212" 
d="M85 0v705h42v-705h-42zM73 -109h66v-64h-66v64z" />
    <glyph glyph-name="uni01C9" unicode="&#x1c9;" horiz-adv-x="424" 
d="M85 0v705h42v-705h-42zM339 -11q0 -77 -40.5 -120.5t-115.5 -48.5l-43 -3l-4 38l42 2q59 5 89 38t30 93v496h42v-495zM286 682h64v-63h-64v63z" />
    <glyph glyph-name="uni1E3B" unicode="&#x1e3b;" horiz-adv-x="212" 
d="M85 0v705h42v-705h-42zM-40 -162v43h292v-43h-292z" />
    <glyph glyph-name="lslash" unicode="&#x142;" horiz-adv-x="244" 
d="M247 407l-104 -60v-347h-42v322l-83 -48l-20 34l103 60v337h42v-313l84 49z" />
    <glyph glyph-name="m" unicode="m" horiz-adv-x="834" 
d="M751 312v-312h-42v308q0 77 -28 112.5t-89 35.5q-70 0 -111.5 -47t-41.5 -127v-282h-42v308q0 77 -28 112.5t-89 35.5q-70 0 -111.5 -47t-41.5 -127v-282h-42v484h41v-85q20 47 59.5 72t93.5 25q116 0 149 -97q21 45 64.5 71t98.5 26q160 0 160 -184z" />
    <glyph glyph-name="uni1E43" unicode="&#x1e43;" horiz-adv-x="834" 
d="M751 312v-312h-42v308q0 77 -28 112.5t-89 35.5q-70 0 -111.5 -47t-41.5 -127v-282h-42v308q0 77 -28 112.5t-89 35.5q-70 0 -111.5 -47t-41.5 -127v-282h-42v484h41v-85q20 47 59.5 72t93.5 25q116 0 149 -97q21 45 64.5 71t98.5 26q160 0 160 -184zM385 -109h66v-64
h-66v64z" />
    <glyph glyph-name="n" unicode="n" horiz-adv-x="553" 
d="M470 312v-312h-42v308q0 77 -31 112.5t-100 35.5q-77 0 -123.5 -47.5t-46.5 -126.5v-282h-42v484h41v-87q22 48 66.5 73.5t101.5 25.5q176 0 176 -184z" />
    <glyph glyph-name="nacute" unicode="&#x144;" horiz-adv-x="553" 
d="M470 312v-312h-42v308q0 77 -31 112.5t-100 35.5q-77 0 -123.5 -47.5t-46.5 -126.5v-282h-42v484h41v-87q22 48 66.5 73.5t101.5 25.5q176 0 176 -184zM295 549h-36l100 200h62z" />
    <glyph glyph-name="napostrophe" unicode="&#x149;" horiz-adv-x="553" 
d="M182 750v-54q0 -36 -10.5 -65.5t-35.5 -54.5l-27 21q20 22 27.5 42.5t8.5 45.5h-33v65h70zM470 312v-312h-42v308q0 77 -31 112.5t-100 35.5q-77 0 -123.5 -47.5t-46.5 -126.5v-282h-42v484h41v-87q22 48 66.5 73.5t101.5 25.5q176 0 176 -184z" />
    <glyph glyph-name="ncaron" unicode="&#x148;" horiz-adv-x="553" 
d="M470 312v-312h-42v308q0 77 -31 112.5t-100 35.5q-77 0 -123.5 -47.5t-46.5 -126.5v-282h-42v484h41v-87q22 48 66.5 73.5t101.5 25.5q176 0 176 -184zM356 749h51l-111 -200h-38l-111 200h51l79 -158z" />
    <glyph glyph-name="ncommaaccent" unicode="&#x146;" horiz-adv-x="553" 
d="M470 312v-312h-42v308q0 77 -31 112.5t-100 35.5q-77 0 -123.5 -47.5t-46.5 -126.5v-282h-42v484h41v-87q22 48 66.5 73.5t101.5 25.5q176 0 176 -184zM312 -76v-54q0 -36 -10.5 -65.5t-35.5 -54.5l-27 21q20 22 27.5 42.5t8.5 45.5h-33v65h70z" />
    <glyph glyph-name="uni1E45" unicode="&#x1e45;" horiz-adv-x="553" 
d="M470 312v-312h-42v308q0 77 -31 112.5t-100 35.5q-77 0 -123.5 -47.5t-46.5 -126.5v-282h-42v484h41v-87q22 48 66.5 73.5t101.5 25.5q176 0 176 -184zM245 682h64v-63h-64v63z" />
    <glyph glyph-name="uni1E47" unicode="&#x1e47;" horiz-adv-x="553" 
d="M470 312v-312h-42v308q0 77 -31 112.5t-100 35.5q-77 0 -123.5 -47.5t-46.5 -126.5v-282h-42v484h41v-87q22 48 66.5 73.5t101.5 25.5q176 0 176 -184zM244 -109h66v-64h-66v64z" />
    <glyph glyph-name="eng" unicode="&#x14b;" horiz-adv-x="553" 
d="M470 312v-323q0 -73 -38 -118t-117 -51l-44 -3l-4 37l42 3q58 4 88.5 37.5t30.5 93.5v320q0 81 -33 114.5t-98 33.5q-74 0 -122 -45.5t-48 -128.5v-282h-42v484h41v-87q22 48 66 73.5t102 25.5q176 0 176 -184z" />
    <glyph glyph-name="uni01CC" unicode="&#x1cc;" horiz-adv-x="765" 
d="M470 312v-312h-42v308q0 77 -31 112.5t-100 35.5q-77 0 -123.5 -47.5t-46.5 -126.5v-282h-42v484h41v-87q22 48 66.5 73.5t101.5 25.5q176 0 176 -184zM680 -11q0 -77 -40.5 -120.5t-115.5 -48.5l-43 -3l-4 38l42 2q59 5 89 38t30 93v496h42v-495zM627 682h64v-63h-64v63
z" />
    <glyph glyph-name="uni1E49" unicode="&#x1e49;" horiz-adv-x="553" 
d="M470 312v-312h-42v308q0 77 -31 112.5t-100 35.5q-77 0 -123.5 -47.5t-46.5 -126.5v-282h-42v484h41v-87q22 48 66.5 73.5t101.5 25.5q176 0 176 -184zM131 -162v43h292v-43h-292z" />
    <glyph glyph-name="ntilde" unicode="&#xf1;" horiz-adv-x="553" 
d="M470 312v-312h-42v308q0 77 -31 112.5t-100 35.5q-77 0 -123.5 -47.5t-46.5 -126.5v-282h-42v484h41v-87q22 48 66.5 73.5t101.5 25.5q176 0 176 -184zM144 673.5q21 26.5 58 26.5q22 0 41.5 -8.5t46.5 -25.5q20 -12 33.5 -18.5t24.5 -6.5q23 0 36.5 17t12.5 39h34
q0 -43 -21 -69.5t-58 -26.5q-22 0 -42 9t-46 26q-20 12 -33.5 18.5t-24.5 6.5q-23 0 -36.5 -17t-12.5 -40h-34q0 43 21 69.5z" />
    <glyph glyph-name="o" unicode="o" horiz-adv-x="536" 
d="M155 24q-49 31 -76 88t-27 133q0 75 27 132t76 88t113 31t113 -31t76 -88t27 -132q0 -76 -27 -133t-76 -88t-113 -31t-113 31zM394.5 88.5q44.5 54.5 44.5 156.5q0 99 -45.5 154.5t-125.5 55.5t-125.5 -55.5t-45.5 -154.5q0 -102 44.5 -156.5t125.5 -54.5
q83 0 127.5 54.5z" />
    <glyph glyph-name="oacute" unicode="&#xf3;" horiz-adv-x="536" 
d="M155 24q-49 31 -76 88t-27 133q0 75 27 132t76 88t113 31t113 -31t76 -88t27 -132q0 -76 -27 -133t-76 -88t-113 -31t-113 31zM394.5 88.5q44.5 54.5 44.5 156.5q0 99 -45.5 154.5t-125.5 55.5t-125.5 -55.5t-45.5 -154.5q0 -102 44.5 -156.5t125.5 -54.5
q83 0 127.5 54.5zM286 549h-36l100 200h62z" />
    <glyph glyph-name="obreve" unicode="&#x14f;" horiz-adv-x="536" 
d="M155 24q-49 31 -76 88t-27 133q0 75 27 132t76 88t113 31t113 -31t76 -88t27 -132q0 -76 -27 -133t-76 -88t-113 -31t-113 31zM394.5 88.5q44.5 54.5 44.5 156.5q0 99 -45.5 154.5t-125.5 55.5t-125.5 -55.5t-45.5 -154.5q0 -102 44.5 -156.5t125.5 -54.5
q83 0 127.5 54.5zM178 611.5q-40 27.5 -63 88.5l40 17q22 -50 49.5 -71.5t63.5 -21.5t63.5 21.5t49.5 71.5l40 -16q-21 -61 -61.5 -89t-91.5 -28q-50 0 -90 27.5z" />
    <glyph glyph-name="ocircumflex" unicode="&#xf4;" horiz-adv-x="536" 
d="M155 24q-49 31 -76 88t-27 133q0 75 27 132t76 88t113 31t113 -31t76 -88t27 -132q0 -76 -27 -133t-76 -88t-113 -31t-113 31zM394.5 88.5q44.5 54.5 44.5 156.5q0 99 -45.5 154.5t-125.5 55.5t-125.5 -55.5t-45.5 -154.5q0 -102 44.5 -156.5t125.5 -54.5
q83 0 127.5 54.5zM189 549h-51l111 200h38l111 -200h-51l-79 158z" />
    <glyph glyph-name="uni1ED1" unicode="&#x1ed1;" horiz-adv-x="536" 
d="M155 24q-49 31 -76 88t-27 133q0 75 27 132t76 88t113 31t113 -31t76 -88t27 -132q0 -76 -27 -133t-76 -88t-113 -31t-113 31zM394.5 88.5q44.5 54.5 44.5 156.5q0 99 -45.5 154.5t-125.5 55.5t-125.5 -55.5t-45.5 -154.5q0 -102 44.5 -156.5t125.5 -54.5
q83 0 127.5 54.5zM383 650h-36l103 142h62zM189 549h-51l112 152h36l112 -152h-51l-79 115z" />
    <glyph glyph-name="uni1ED9" unicode="&#x1ed9;" horiz-adv-x="536" 
d="M155 24q-49 31 -76 88t-27 133q0 75 27 132t76 88t113 31t113 -31t76 -88t27 -132q0 -76 -27 -133t-76 -88t-113 -31t-113 31zM394.5 88.5q44.5 54.5 44.5 156.5q0 99 -45.5 154.5t-125.5 55.5t-125.5 -55.5t-45.5 -154.5q0 -102 44.5 -156.5t125.5 -54.5
q83 0 127.5 54.5zM235 -109h66v-64h-66v64zM189 549h-51l111 200h38l111 -200h-51l-79 158z" />
    <glyph glyph-name="uni1ED3" unicode="&#x1ed3;" horiz-adv-x="536" 
d="M155 24q-49 31 -76 88t-27 133q0 75 27 132t76 88t113 31t113 -31t76 -88t27 -132q0 -76 -27 -133t-76 -88t-113 -31t-113 31zM394.5 88.5q44.5 54.5 44.5 156.5q0 99 -45.5 154.5t-125.5 55.5t-125.5 -55.5t-45.5 -154.5q0 -102 44.5 -156.5t125.5 -54.5
q83 0 127.5 54.5zM390 650l-106 142h62l80 -142h-36zM189 549h-51l112 152h36l112 -152h-51l-79 115z" />
    <glyph glyph-name="uni1ED5" unicode="&#x1ed5;" horiz-adv-x="536" 
d="M155 24q-49 31 -76 88t-27 133q0 75 27 132t76 88t113 31t113 -31t76 -88t27 -132q0 -76 -27 -133t-76 -88t-113 -31t-113 31zM394.5 88.5q44.5 54.5 44.5 156.5q0 99 -45.5 154.5t-125.5 55.5t-125.5 -55.5t-45.5 -154.5q0 -102 44.5 -156.5t125.5 -54.5
q83 0 127.5 54.5zM388 650h-42v15q0 17 11 26.5t30 17.5q15 7 21.5 12t6.5 13q0 10 -12.5 15t-33.5 5q-30 0 -62 -12l-12 38q39 17 73 17q45 0 70 -17.5t25 -47.5q0 -17 -11 -26.5t-32 -18.5q-16 -7 -24 -13t-8 -15v-9zM189 549h-51l112 152h36l112 -152h-51l-79 115z" />
    <glyph glyph-name="uni1ED7" unicode="&#x1ed7;" horiz-adv-x="536" 
d="M155 24q-49 31 -76 88t-27 133q0 75 27 132t76 88t113 31t113 -31t76 -88t27 -132q0 -76 -27 -133t-76 -88t-113 -31t-113 31zM394.5 88.5q44.5 54.5 44.5 156.5q0 99 -45.5 154.5t-125.5 55.5t-125.5 -55.5t-45.5 -154.5q0 -102 44.5 -156.5t125.5 -54.5
q83 0 127.5 54.5zM135 783q21 26 58 26q22 0 41 -7t47 -21q15 -8 31 -14t27 -6q23 0 36.5 16.5t12.5 35.5h34q0 -43 -21 -69t-58 -26q-22 0 -41 7t-47 21q-20 10 -33.5 15.5t-24.5 5.5q-23 0 -36.5 -17t-12.5 -36h-34q0 43 21 69zM189 549h-51l112 152h36l112 -152h-51
l-79 115z" />
    <glyph glyph-name="uni020D" unicode="&#x20d;" horiz-adv-x="536" 
d="M155 24q-49 31 -76 88t-27 133q0 75 27 132t76 88t113 31t113 -31t76 -88t27 -132q0 -76 -27 -133t-76 -88t-113 -31t-113 31zM394.5 88.5q44.5 54.5 44.5 156.5q0 99 -45.5 154.5t-125.5 55.5t-125.5 -55.5t-45.5 -154.5q0 -102 44.5 -156.5t125.5 -54.5
q83 0 127.5 54.5zM199 549l-80 200h56l52 -200h-28zM309 549l-79 200h55l52 -200h-28z" />
    <glyph glyph-name="odieresis" unicode="&#xf6;" horiz-adv-x="536" 
d="M155 24q-49 31 -76 88t-27 133q0 75 27 132t76 88t113 31t113 -31t76 -88t27 -132q0 -76 -27 -133t-76 -88t-113 -31t-113 31zM394.5 88.5q44.5 54.5 44.5 156.5q0 99 -45.5 154.5t-125.5 55.5t-125.5 -55.5t-45.5 -154.5q0 -102 44.5 -156.5t125.5 -54.5
q83 0 127.5 54.5zM157 680h61v-60h-61v60zM318 680h61v-60h-61v60z" />
    <glyph glyph-name="uni022B" unicode="&#x22b;" horiz-adv-x="536" 
d="M155 24q-49 31 -76 88t-27 133q0 75 27 132t76 88t113 31t113 -31t76 -88t27 -132q0 -76 -27 -133t-76 -88t-113 -31t-113 31zM394.5 88.5q44.5 54.5 44.5 156.5q0 99 -45.5 154.5t-125.5 55.5t-125.5 -55.5t-45.5 -154.5q0 -102 44.5 -156.5t125.5 -54.5
q83 0 127.5 54.5zM157 680h61v-60h-61v60zM318 680h61v-60h-61v60zM122 824v43h292v-43h-292z" />
    <glyph glyph-name="uni0231" unicode="&#x231;" horiz-adv-x="536" 
d="M155 24q-49 31 -76 88t-27 133q0 75 27 132t76 88t113 31t113 -31t76 -88t27 -132q0 -76 -27 -133t-76 -88t-113 -31t-113 31zM394.5 88.5q44.5 54.5 44.5 156.5q0 99 -45.5 154.5t-125.5 55.5t-125.5 -55.5t-45.5 -154.5q0 -102 44.5 -156.5t125.5 -54.5
q83 0 127.5 54.5zM236 682h64v-63h-64v63zM122 824v43h292v-43h-292z" />
    <glyph glyph-name="uni1ECD" unicode="&#x1ecd;" horiz-adv-x="536" 
d="M155 24q-49 31 -76 88t-27 133q0 75 27 132t76 88t113 31t113 -31t76 -88t27 -132q0 -76 -27 -133t-76 -88t-113 -31t-113 31zM394.5 88.5q44.5 54.5 44.5 156.5q0 99 -45.5 154.5t-125.5 55.5t-125.5 -55.5t-45.5 -154.5q0 -102 44.5 -156.5t125.5 -54.5
q83 0 127.5 54.5zM235 -109h66v-64h-66v64z" />
    <glyph glyph-name="ograve" unicode="&#xf2;" horiz-adv-x="536" 
d="M155 24q-49 31 -76 88t-27 133q0 75 27 132t76 88t113 31t113 -31t76 -88t27 -132q0 -76 -27 -133t-76 -88t-113 -31t-113 31zM394.5 88.5q44.5 54.5 44.5 156.5q0 99 -45.5 154.5t-125.5 55.5t-125.5 -55.5t-45.5 -154.5q0 -102 44.5 -156.5t125.5 -54.5
q83 0 127.5 54.5zM250 549l-126 200h62l100 -200h-36z" />
    <glyph glyph-name="uni1ECF" unicode="&#x1ecf;" horiz-adv-x="536" 
d="M155 24q-49 31 -76 88t-27 133q0 75 27 132t76 88t113 31t113 -31t76 -88t27 -132q0 -76 -27 -133t-76 -88t-113 -31t-113 31zM394.5 88.5q44.5 54.5 44.5 156.5q0 99 -45.5 154.5t-125.5 55.5t-125.5 -55.5t-45.5 -154.5q0 -102 44.5 -156.5t125.5 -54.5
q83 0 127.5 54.5zM290 549h-40v30q0 19 10 33.5t29 33.5q14 13 21 22.5t7 19.5q0 12 -12 18.5t-33 6.5q-31 0 -64 -12l-12 36q37 17 77 17q42 0 66.5 -18t24.5 -47q0 -23 -9.5 -36t-29.5 -30q-18 -16 -26.5 -28t-8.5 -31v-15z" />
    <glyph glyph-name="ohorn" unicode="&#x1a1;" horiz-adv-x="536" 
d="M458.5 374q25.5 -55 25.5 -129q0 -76 -27 -133t-76 -88t-113 -31t-113 31t-76 88t-27 133q0 75 27 132t76 88t114 31q20 0 38 -3q20 -2 28 -2q54 0 77.5 27t23.5 86v12h40v-20q0 -52 -23 -86.5t-67 -48.5q47 -32 72.5 -87zM394.5 88.5q44.5 54.5 44.5 156.5
q0 99 -45.5 154.5t-125.5 55.5t-125.5 -55.5t-45.5 -154.5q0 -102 44.5 -156.5t125.5 -54.5q83 0 127.5 54.5z" />
    <glyph glyph-name="uni1EDB" unicode="&#x1edb;" horiz-adv-x="536" 
d="M458.5 374q25.5 -55 25.5 -129q0 -76 -27 -133t-76 -88t-113 -31t-113 31t-76 88t-27 133q0 75 27 132t76 88t114 31q20 0 38 -3q20 -2 28 -2q54 0 77.5 27t23.5 86v12h40v-20q0 -52 -23 -86.5t-67 -48.5q47 -32 72.5 -87zM394.5 88.5q44.5 54.5 44.5 156.5
q0 99 -45.5 154.5t-125.5 55.5t-125.5 -55.5t-45.5 -154.5q0 -102 44.5 -156.5t125.5 -54.5q83 0 127.5 54.5zM286 549h-36l100 200h62z" />
    <glyph glyph-name="uni1EE3" unicode="&#x1ee3;" horiz-adv-x="536" 
d="M458.5 374q25.5 -55 25.5 -129q0 -76 -27 -133t-76 -88t-113 -31t-113 31t-76 88t-27 133q0 75 27 132t76 88t114 31q20 0 38 -3q20 -2 28 -2q54 0 77.5 27t23.5 86v12h40v-20q0 -52 -23 -86.5t-67 -48.5q47 -32 72.5 -87zM394.5 88.5q44.5 54.5 44.5 156.5
q0 99 -45.5 154.5t-125.5 55.5t-125.5 -55.5t-45.5 -154.5q0 -102 44.5 -156.5t125.5 -54.5q83 0 127.5 54.5zM235 -109h66v-64h-66v64z" />
    <glyph glyph-name="uni1EDD" unicode="&#x1edd;" horiz-adv-x="536" 
d="M458.5 374q25.5 -55 25.5 -129q0 -76 -27 -133t-76 -88t-113 -31t-113 31t-76 88t-27 133q0 75 27 132t76 88t114 31q20 0 38 -3q20 -2 28 -2q54 0 77.5 27t23.5 86v12h40v-20q0 -52 -23 -86.5t-67 -48.5q47 -32 72.5 -87zM394.5 88.5q44.5 54.5 44.5 156.5
q0 99 -45.5 154.5t-125.5 55.5t-125.5 -55.5t-45.5 -154.5q0 -102 44.5 -156.5t125.5 -54.5q83 0 127.5 54.5zM250 549l-126 200h62l100 -200h-36z" />
    <glyph glyph-name="uni1EDF" unicode="&#x1edf;" horiz-adv-x="536" 
d="M458.5 374q25.5 -55 25.5 -129q0 -76 -27 -133t-76 -88t-113 -31t-113 31t-76 88t-27 133q0 75 27 132t76 88t114 31q20 0 38 -3q20 -2 28 -2q54 0 77.5 27t23.5 86v12h40v-20q0 -52 -23 -86.5t-67 -48.5q47 -32 72.5 -87zM394.5 88.5q44.5 54.5 44.5 156.5
q0 99 -45.5 154.5t-125.5 55.5t-125.5 -55.5t-45.5 -154.5q0 -102 44.5 -156.5t125.5 -54.5q83 0 127.5 54.5zM290 549h-40v30q0 19 10 33.5t29 33.5q14 13 21 22.5t7 19.5q0 12 -12 18.5t-33 6.5q-31 0 -64 -12l-12 36q37 17 77 17q42 0 66.5 -18t24.5 -47q0 -23 -9.5 -36
t-29.5 -30q-18 -16 -26.5 -28t-8.5 -31v-15z" />
    <glyph glyph-name="uni1EE1" unicode="&#x1ee1;" horiz-adv-x="536" 
d="M458.5 374q25.5 -55 25.5 -129q0 -76 -27 -133t-76 -88t-113 -31t-113 31t-76 88t-27 133q0 75 27 132t76 88t114 31q20 0 38 -3q20 -2 28 -2q54 0 77.5 27t23.5 86v12h40v-20q0 -52 -23 -86.5t-67 -48.5q47 -32 72.5 -87zM394.5 88.5q44.5 54.5 44.5 156.5
q0 99 -45.5 154.5t-125.5 55.5t-125.5 -55.5t-45.5 -154.5q0 -102 44.5 -156.5t125.5 -54.5q83 0 127.5 54.5zM135 673.5q21 26.5 58 26.5q22 0 41.5 -8.5t46.5 -25.5q20 -12 33.5 -18.5t24.5 -6.5q23 0 36.5 17t12.5 39h34q0 -43 -21 -69.5t-58 -26.5q-22 0 -42 9t-46 26
q-20 12 -33.5 18.5t-24.5 6.5q-23 0 -36.5 -17t-12.5 -40h-34q0 43 21 69.5z" />
    <glyph glyph-name="ohungarumlaut" unicode="&#x151;" horiz-adv-x="536" 
d="M155 24q-49 31 -76 88t-27 133q0 75 27 132t76 88t113 31t113 -31t76 -88t27 -132q0 -76 -27 -133t-76 -88t-113 -31t-113 31zM394.5 88.5q44.5 54.5 44.5 156.5q0 99 -45.5 154.5t-125.5 55.5t-125.5 -55.5t-45.5 -154.5q0 -102 44.5 -156.5t125.5 -54.5
q83 0 127.5 54.5zM227 549h-28l52 200h55zM337 549h-28l52 200h56z" />
    <glyph glyph-name="uni020F" unicode="&#x20f;" horiz-adv-x="536" 
d="M155 24q-49 31 -76 88t-27 133q0 75 27 132t76 88t113 31t113 -31t76 -88t27 -132q0 -76 -27 -133t-76 -88t-113 -31t-113 31zM394.5 88.5q44.5 54.5 44.5 156.5q0 99 -45.5 154.5t-125.5 55.5t-125.5 -55.5t-45.5 -154.5q0 -102 44.5 -156.5t125.5 -54.5
q83 0 127.5 54.5zM358 689q40 -28 63 -88l-40 -18q-22 50 -49.5 72t-63.5 22t-63.5 -22t-49.5 -72l-40 17q21 61 61.5 89t91.5 28q50 0 90 -28z" />
    <glyph glyph-name="omacron" unicode="&#x14d;" horiz-adv-x="536" 
d="M155 24q-49 31 -76 88t-27 133q0 75 27 132t76 88t113 31t113 -31t76 -88t27 -132q0 -76 -27 -133t-76 -88t-113 -31t-113 31zM394.5 88.5q44.5 54.5 44.5 156.5q0 99 -45.5 154.5t-125.5 55.5t-125.5 -55.5t-45.5 -154.5q0 -102 44.5 -156.5t125.5 -54.5
q83 0 127.5 54.5zM122 629v43h292v-43h-292z" />
    <glyph glyph-name="uni1E53" unicode="&#x1e53;" horiz-adv-x="536" 
d="M155 24q-49 31 -76 88t-27 133q0 75 27 132t76 88t113 31t113 -31t76 -88t27 -132q0 -76 -27 -133t-76 -88t-113 -31t-113 31zM394.5 88.5q44.5 54.5 44.5 156.5q0 99 -45.5 154.5t-125.5 55.5t-125.5 -55.5t-45.5 -154.5q0 -102 44.5 -156.5t125.5 -54.5
q83 0 127.5 54.5zM122 629v43h292v-43h-292zM286 744h-36l100 200h62z" />
    <glyph glyph-name="uni1E51" unicode="&#x1e51;" horiz-adv-x="536" 
d="M155 24q-49 31 -76 88t-27 133q0 75 27 132t76 88t113 31t113 -31t76 -88t27 -132q0 -76 -27 -133t-76 -88t-113 -31t-113 31zM394.5 88.5q44.5 54.5 44.5 156.5q0 99 -45.5 154.5t-125.5 55.5t-125.5 -55.5t-45.5 -154.5q0 -102 44.5 -156.5t125.5 -54.5
q83 0 127.5 54.5zM122 629v43h292v-43h-292zM250 744l-126 200h62l100 -200h-36z" />
    <glyph glyph-name="uni01EB" unicode="&#x1eb;" horiz-adv-x="536" 
d="M275 -29q-21 -21 -21 -55q0 -31 18.5 -49.5t50.5 -18.5q24 0 60 19l16 -34q-31 -23 -78 -23q-50 0 -80.5 28t-30.5 74q0 50 34 82q-88 8 -140 75.5t-52 175.5q0 75 27 132t76 88t113 31t113 -31t76 -88t27 -132q0 -90 -36.5 -153t-101.5 -84q-50 -16 -71 -37zM141.5 88.5
q44.5 -54.5 125.5 -54.5q83 0 127.5 54.5t44.5 156.5q0 99 -45.5 154.5t-125.5 55.5t-125.5 -55.5t-45.5 -154.5q0 -102 44.5 -156.5z" />
    <glyph glyph-name="oslash" unicode="&#xf8;" horiz-adv-x="536" 
d="M464.5 360.5q19.5 -51.5 19.5 -115.5q0 -76 -27 -133t-76 -88t-113 -31q-59 0 -106 27l-32 -56l-37 21l35 60q-36 33 -56 84t-20 116q0 75 27 132t76 88t113 31q61 0 106 -27l33 56l36 -20l-35 -60q37 -33 56.5 -84.5zM149 81l205 353q-36 21 -86 21q-80 0 -125 -55.5
t-45 -154.5q0 -110 51 -164zM394.5 88.5q44.5 54.5 44.5 156.5q0 53 -13.5 94.5t-38.5 68.5l-205 -354q37 -20 85 -20q83 0 127.5 54.5z" />
    <glyph glyph-name="oslashacute" unicode="&#x1ff;" horiz-adv-x="536" 
d="M464.5 360.5q19.5 -51.5 19.5 -115.5q0 -76 -27 -133t-76 -88t-113 -31q-59 0 -106 27l-32 -56l-37 21l35 60q-36 33 -56 84t-20 116q0 75 27 132t76 88t113 31q61 0 106 -27l33 56l36 -20l-35 -60q37 -33 56.5 -84.5zM149 81l205 353q-36 21 -86 21q-80 0 -125 -55.5
t-45 -154.5q0 -110 51 -164zM394.5 88.5q44.5 54.5 44.5 156.5q0 53 -13.5 94.5t-38.5 68.5l-205 -354q37 -20 85 -20q83 0 127.5 54.5zM286 549h-36l100 200h62z" />
    <glyph glyph-name="otilde" unicode="&#xf5;" horiz-adv-x="536" 
d="M155 24q-49 31 -76 88t-27 133q0 75 27 132t76 88t113 31t113 -31t76 -88t27 -132q0 -76 -27 -133t-76 -88t-113 -31t-113 31zM394.5 88.5q44.5 54.5 44.5 156.5q0 99 -45.5 154.5t-125.5 55.5t-125.5 -55.5t-45.5 -154.5q0 -102 44.5 -156.5t125.5 -54.5
q83 0 127.5 54.5zM135 673.5q21 26.5 58 26.5q22 0 41.5 -8.5t46.5 -25.5q20 -12 33.5 -18.5t24.5 -6.5q23 0 36.5 17t12.5 39h34q0 -43 -21 -69.5t-58 -26.5q-22 0 -42 9t-46 26q-20 12 -33.5 18.5t-24.5 6.5q-23 0 -36.5 -17t-12.5 -40h-34q0 43 21 69.5z" />
    <glyph glyph-name="uni1E4D" unicode="&#x1e4d;" horiz-adv-x="536" 
d="M155 24q-49 31 -76 88t-27 133q0 75 27 132t76 88t113 31t113 -31t76 -88t27 -132q0 -76 -27 -133t-76 -88t-113 -31t-113 31zM394.5 88.5q44.5 54.5 44.5 156.5q0 99 -45.5 154.5t-125.5 55.5t-125.5 -55.5t-45.5 -154.5q0 -102 44.5 -156.5t125.5 -54.5
q83 0 127.5 54.5zM135 673.5q21 26.5 58 26.5q22 0 41.5 -8.5t46.5 -25.5q20 -12 33.5 -18.5t24.5 -6.5q23 0 36.5 17t12.5 39h34q0 -43 -21 -69.5t-58 -26.5q-22 0 -42 9t-46 26q-20 12 -33.5 18.5t-24.5 6.5q-23 0 -36.5 -17t-12.5 -40h-34q0 43 21 69.5zM286 744h-36
l100 200h62z" />
    <glyph glyph-name="uni1E4F" unicode="&#x1e4f;" horiz-adv-x="536" 
d="M155 24q-49 31 -76 88t-27 133q0 75 27 132t76 88t113 31t113 -31t76 -88t27 -132q0 -76 -27 -133t-76 -88t-113 -31t-113 31zM394.5 88.5q44.5 54.5 44.5 156.5q0 99 -45.5 154.5t-125.5 55.5t-125.5 -55.5t-45.5 -154.5q0 -102 44.5 -156.5t125.5 -54.5
q83 0 127.5 54.5zM135 673.5q21 26.5 58 26.5q22 0 41.5 -8.5t46.5 -25.5q20 -12 33.5 -18.5t24.5 -6.5q23 0 36.5 17t12.5 39h34q0 -43 -21 -69.5t-58 -26.5q-22 0 -42 9t-46 26q-20 12 -33.5 18.5t-24.5 6.5q-23 0 -36.5 -17t-12.5 -40h-34q0 43 21 69.5zM157 875h61v-60
h-61v60zM318 875h61v-60h-61v60z" />
    <glyph glyph-name="uni022D" unicode="&#x22d;" horiz-adv-x="536" 
d="M155 24q-49 31 -76 88t-27 133q0 75 27 132t76 88t113 31t113 -31t76 -88t27 -132q0 -76 -27 -133t-76 -88t-113 -31t-113 31zM394.5 88.5q44.5 54.5 44.5 156.5q0 99 -45.5 154.5t-125.5 55.5t-125.5 -55.5t-45.5 -154.5q0 -102 44.5 -156.5t125.5 -54.5
q83 0 127.5 54.5zM135 673.5q21 26.5 58 26.5q22 0 41.5 -8.5t46.5 -25.5q20 -12 33.5 -18.5t24.5 -6.5q23 0 36.5 17t12.5 39h34q0 -43 -21 -69.5t-58 -26.5q-22 0 -42 9t-46 26q-20 12 -33.5 18.5t-24.5 6.5q-23 0 -36.5 -17t-12.5 -40h-34q0 43 21 69.5zM122 824v43h292
v-43h-292z" />
    <glyph glyph-name="oe" unicode="&#x153;" horiz-adv-x="907" 
d="M857 238h-372q2 -98 49.5 -151t135.5 -53q81 0 159 63l20 -36q-30 -30 -79.5 -49t-98.5 -19q-78 0 -131.5 37.5t-76.5 108.5q-23 -70 -73 -108t-121 -38q-65 0 -114 31t-76 88t-27 133q0 75 27 132t76 88t114 31q69 0 119 -37.5t73 -104.5q24 66 76 104t123 38
q93 0 145 -61t52 -171v-26zM539.5 409.5q-45.5 -47.5 -53.5 -132.5h331q-2 87 -43 133.5t-114 46.5q-75 0 -120.5 -47.5zM394.5 88.5q44.5 54.5 44.5 156.5q0 99 -45 154.5t-126 55.5q-80 0 -125.5 -55.5t-45.5 -154.5q0 -102 44.5 -156.5t125.5 -54.5q83 0 127.5 54.5z" />
    <glyph glyph-name="p" unicode="p" horiz-adv-x="565" 
d="M410 464.5q49 -31.5 76 -88.5t27 -133q0 -75 -27 -131.5t-76 -87.5t-113 -31q-61 0 -104.5 27t-65.5 78v-278h-42v664h42v-91q22 50 65.5 76.5t104.5 26.5q64 0 113 -31.5zM422 88.5q45 54.5 45 154.5t-45 156t-125 56q-82 0 -126 -54.5t-44 -155.5t44 -156t125 -55
t126 54.5z" />
    <glyph glyph-name="thorn" unicode="&#xfe;" horiz-adv-x="565" 
d="M408 465.5q49 -30.5 77 -87.5t28 -135t-28 -134.5t-77 -86t-111 -29.5q-61 0 -104.5 27t-65.5 78v-278h-42v885h42v-312q22 50 65.5 76.5t104.5 26.5q62 0 111 -30.5zM422.5 89q44.5 55 44.5 154q0 98 -44.5 155t-125.5 57q-82 0 -126 -54.5t-44 -155.5t44 -156t125 -55
q82 0 126.5 55z" />
    <glyph glyph-name="q" unicode="q" horiz-adv-x="565" 
d="M480 484v-664h-42v278q-22 -51 -65.5 -78t-104.5 -27q-64 0 -113 31t-76 87.5t-27 131.5q0 76 27 133t76 88.5t113 31.5q61 0 104.5 -26.5t65.5 -76.5v91h42zM394 89q44 55 44 156t-44 155.5t-126 54.5q-80 0 -125.5 -56t-45.5 -156q0 -99 45.5 -154t126.5 -55t125 55z
" />
    <glyph glyph-name="r" unicode="r" horiz-adv-x="326" 
d="M318 458l-34 -4q-82 -8 -119.5 -53.5t-37.5 -110.5v-290h-42v484h42v-85q23 45 63.5 67.5t101.5 27.5l21 2z" />
    <glyph glyph-name="racute" unicode="&#x155;" horiz-adv-x="326" 
d="M318 458l-34 -4q-82 -8 -119.5 -53.5t-37.5 -110.5v-290h-42v484h42v-85q23 45 63.5 67.5t101.5 27.5l21 2zM222 549h-36l100 200h62z" />
    <glyph glyph-name="rcaron" unicode="&#x159;" horiz-adv-x="326" 
d="M318 458l-34 -4q-82 -8 -119.5 -53.5t-37.5 -110.5v-290h-42v484h42v-85q23 45 63.5 67.5t101.5 27.5l21 2zM283 749h51l-111 -200h-38l-111 200h51l79 -158z" />
    <glyph glyph-name="rcommaaccent" unicode="&#x157;" horiz-adv-x="326" 
d="M318 458l-34 -4q-82 -8 -119.5 -53.5t-37.5 -110.5v-290h-42v484h42v-85q23 45 63.5 67.5t101.5 27.5l21 2zM141 -76v-54q0 -36 -10.5 -65.5t-35.5 -54.5l-27 21q20 22 27.5 42.5t8.5 45.5h-33v65h70z" />
    <glyph glyph-name="uni0211" unicode="&#x211;" horiz-adv-x="326" 
d="M318 458l-34 -4q-82 -8 -119.5 -53.5t-37.5 -110.5v-290h-42v484h42v-85q23 45 63.5 67.5t101.5 27.5l21 2zM135 549l-80 200h56l52 -200h-28zM245 549l-79 200h55l52 -200h-28z" />
    <glyph glyph-name="uni1E5B" unicode="&#x1e5b;" horiz-adv-x="326" 
d="M318 458l-34 -4q-82 -8 -119.5 -53.5t-37.5 -110.5v-290h-42v484h42v-85q23 45 63.5 67.5t101.5 27.5l21 2zM73 -109h66v-64h-66v64z" />
    <glyph glyph-name="uni0213" unicode="&#x213;" horiz-adv-x="326" 
d="M318 458l-34 -4q-82 -8 -119.5 -53.5t-37.5 -110.5v-290h-42v484h42v-85q23 45 63.5 67.5t101.5 27.5l21 2zM294 689q40 -28 63 -88l-40 -18q-22 50 -49.5 72t-63.5 22t-63.5 -22t-49.5 -72l-40 17q21 61 61.5 89t91.5 28q50 0 90 -28z" />
    <glyph glyph-name="uni1E5F" unicode="&#x1e5f;" horiz-adv-x="326" 
d="M318 458l-34 -4q-82 -8 -119.5 -53.5t-37.5 -110.5v-290h-42v484h42v-85q23 45 63.5 67.5t101.5 27.5l21 2zM-40 -162v43h292v-43h-292z" />
    <glyph glyph-name="s" unicode="s" horiz-adv-x="476" 
d="M55 59l20 35q39 -33 75.5 -46t88.5 -13q64 0 98 23t34 65q0 35 -22 56t-71 33l-82 19q-57 13 -90.5 47.5t-33.5 79.5q0 62 47 100t127 38q51 0 94 -17t70 -48l-20 -36q-32 30 -67 44.5t-77 14.5q-59 0 -92.5 -24t-33.5 -66q0 -37 20.5 -58.5t64.5 -32.5l83 -20
q129 -30 129 -127q0 -60 -49 -96.5t-132 -36.5q-112 0 -181 66z" />
    <glyph glyph-name="sacute" unicode="&#x15b;" horiz-adv-x="476" 
d="M55 59l20 35q39 -33 75.5 -46t88.5 -13q64 0 98 23t34 65q0 35 -22 56t-71 33l-82 19q-57 13 -90.5 47.5t-33.5 79.5q0 62 47 100t127 38q51 0 94 -17t70 -48l-20 -36q-32 30 -67 44.5t-77 14.5q-59 0 -92.5 -24t-33.5 -66q0 -37 20.5 -58.5t64.5 -32.5l83 -20
q129 -30 129 -127q0 -60 -49 -96.5t-132 -36.5q-112 0 -181 66zM264 549h-36l100 200h62z" />
    <glyph glyph-name="uni1E65" unicode="&#x1e65;" horiz-adv-x="476" 
d="M55 59l20 35q39 -33 75.5 -46t88.5 -13q64 0 98 23t34 65q0 35 -22 56t-71 33l-82 19q-57 13 -90.5 47.5t-33.5 79.5q0 62 47 100t127 38q51 0 94 -17t70 -48l-20 -36q-32 30 -67 44.5t-77 14.5q-59 0 -92.5 -24t-33.5 -66q0 -37 20.5 -58.5t64.5 -32.5l83 -20
q129 -30 129 -127q0 -60 -49 -96.5t-132 -36.5q-112 0 -181 66zM262 549h-36l100 200h62zM123 750h64v-63h-64v63z" />
    <glyph glyph-name="scaron" unicode="&#x161;" horiz-adv-x="476" 
d="M55 59l20 35q39 -33 75.5 -46t88.5 -13q64 0 98 23t34 65q0 35 -22 56t-71 33l-82 19q-57 13 -90.5 47.5t-33.5 79.5q0 62 47 100t127 38q51 0 94 -17t70 -48l-20 -36q-32 30 -67 44.5t-77 14.5q-59 0 -92.5 -24t-33.5 -66q0 -37 20.5 -58.5t64.5 -32.5l83 -20
q129 -30 129 -127q0 -60 -49 -96.5t-132 -36.5q-112 0 -181 66zM325 749h51l-111 -200h-38l-111 200h51l79 -158z" />
    <glyph glyph-name="uni1E67" unicode="&#x1e67;" horiz-adv-x="476" 
d="M55 59l20 35q39 -33 75.5 -46t88.5 -13q64 0 98 23t34 65q0 35 -22 56t-71 33l-82 19q-57 13 -90.5 47.5t-33.5 79.5q0 62 47 100t127 38q51 0 94 -17t70 -48l-20 -36q-32 30 -67 44.5t-77 14.5q-59 0 -92.5 -24t-33.5 -66q0 -37 20.5 -58.5t64.5 -32.5l83 -20
q129 -30 129 -127q0 -60 -49 -96.5t-132 -36.5q-112 0 -181 66zM325 749h51l-111 -200h-38l-111 200h51l79 -158zM214 877h64v-63h-64v63z" />
    <glyph glyph-name="scedilla" unicode="&#x15f;" horiz-adv-x="476" 
d="M371.5 32.5q-45.5 -36.5 -123.5 -39.5l-3 -38q12 4 30 4q29 0 50.5 -17t21.5 -52t-28 -57.5t-77 -22.5q-21 0 -44.5 4.5t-40.5 14.5l14 34q32 -14 73 -14q30 0 45.5 11t15.5 30q0 15 -9.5 23t-27.5 8q-21 0 -50 -11l-19 14l7 70q-92 9 -151 65l20 35q39 -33 75.5 -46
t88.5 -13q64 0 98 23t34 65q0 35 -22 56t-71 33l-82 19q-57 13 -90.5 47.5t-33.5 79.5q0 62 47 100t127 38q51 0 94 -17t70 -48l-20 -36q-32 30 -67 44.5t-77 14.5q-59 0 -92.5 -24t-33.5 -66q0 -37 20.5 -58.5t64.5 -32.5l83 -20q129 -30 129 -127q0 -57 -45.5 -93.5z" />
    <glyph glyph-name="scircumflex" unicode="&#x15d;" horiz-adv-x="476" 
d="M55 59l20 35q39 -33 75.5 -46t88.5 -13q64 0 98 23t34 65q0 35 -22 56t-71 33l-82 19q-57 13 -90.5 47.5t-33.5 79.5q0 62 47 100t127 38q51 0 94 -17t70 -48l-20 -36q-32 30 -67 44.5t-77 14.5q-59 0 -92.5 -24t-33.5 -66q0 -37 20.5 -58.5t64.5 -32.5l83 -20
q129 -30 129 -127q0 -60 -49 -96.5t-132 -36.5q-112 0 -181 66zM167 549h-51l111 200h38l111 -200h-51l-79 158z" />
    <glyph glyph-name="scommaaccent" unicode="&#x219;" horiz-adv-x="476" 
d="M55 59l20 35q39 -33 75.5 -46t88.5 -13q64 0 98 23t34 65q0 35 -22 56t-71 33l-82 19q-57 13 -90.5 47.5t-33.5 79.5q0 62 47 100t127 38q51 0 94 -17t70 -48l-20 -36q-32 30 -67 44.5t-77 14.5q-59 0 -92.5 -24t-33.5 -66q0 -37 20.5 -58.5t64.5 -32.5l83 -20
q129 -30 129 -127q0 -60 -49 -96.5t-132 -36.5q-112 0 -181 66zM271 -76v-54q0 -36 -10.5 -65.5t-35.5 -54.5l-27 21q20 22 27.5 42.5t8.5 45.5h-33v65h70z" />
    <glyph glyph-name="uni1E61" unicode="&#x1e61;" horiz-adv-x="476" 
d="M55 59l20 35q39 -33 75.5 -46t88.5 -13q64 0 98 23t34 65q0 35 -22 56t-71 33l-82 19q-57 13 -90.5 47.5t-33.5 79.5q0 62 47 100t127 38q51 0 94 -17t70 -48l-20 -36q-32 30 -67 44.5t-77 14.5q-59 0 -92.5 -24t-33.5 -66q0 -37 20.5 -58.5t64.5 -32.5l83 -20
q129 -30 129 -127q0 -60 -49 -96.5t-132 -36.5q-112 0 -181 66zM214 682h64v-63h-64v63z" />
    <glyph glyph-name="uni1E63" unicode="&#x1e63;" horiz-adv-x="476" 
d="M55 59l20 35q39 -33 75.5 -46t88.5 -13q64 0 98 23t34 65q0 35 -22 56t-71 33l-82 19q-57 13 -90.5 47.5t-33.5 79.5q0 62 47 100t127 38q51 0 94 -17t70 -48l-20 -36q-32 30 -67 44.5t-77 14.5q-59 0 -92.5 -24t-33.5 -66q0 -37 20.5 -58.5t64.5 -32.5l83 -20
q129 -30 129 -127q0 -60 -49 -96.5t-132 -36.5q-112 0 -181 66zM203 -109h66v-64h-66v64z" />
    <glyph glyph-name="uni1E69" unicode="&#x1e69;" horiz-adv-x="476" 
d="M55 59l20 35q39 -33 75.5 -46t88.5 -13q64 0 98 23t34 65q0 35 -22 56t-71 33l-82 19q-57 13 -90.5 47.5t-33.5 79.5q0 62 47 100t127 38q51 0 94 -17t70 -48l-20 -36q-32 30 -67 44.5t-77 14.5q-59 0 -92.5 -24t-33.5 -66q0 -37 20.5 -58.5t64.5 -32.5l83 -20
q129 -30 129 -127q0 -60 -49 -96.5t-132 -36.5q-112 0 -181 66zM203 -109h66v-64h-66v64zM214 682h64v-63h-64v63z" />
    <glyph glyph-name="germandbls" unicode="&#xdf;" horiz-adv-x="581" 
d="M85 495q0 100 52.5 157t145.5 57q68 0 107.5 -33t39.5 -89q0 -42 -21.5 -70.5t-63.5 -64.5q-32 -27 -47 -45t-15 -41q0 -27 15.5 -45t38.5 -29t63 -26q47 -17 76 -32t49.5 -42t20.5 -68q0 -58 -48 -94.5t-124 -36.5q-50 0 -96 17.5t-77 48.5l20 35q42 -32 77 -45.5
t76 -14.5q59 0 92.5 24.5t33.5 67.5q0 29 -16 48t-40 30t-65 25q-47 16 -75 30t-47.5 39t-19.5 65q0 35 19.5 60.5t57.5 56.5q37 31 55 54t18 55q0 37 -27 58t-75 21q-76 0 -117 -44.5t-41 -127.5v-496h-42v495z" />
    <glyph glyph-name="t" unicode="t" horiz-adv-x="314" 
d="M308 36l-2 -39q-21 -3 -45 -3q-75 0 -115.5 43.5t-40.5 116.5v294h-97v36h97v151h42v-151h146v-36h-146v-285q0 -64 30 -97t89 -33q23 0 42 3z" />
    <glyph glyph-name="tbar" unicode="&#x167;" horiz-adv-x="324" 
d="M313 36l-2 -39q-21 -3 -45 -3q-75 0 -115.5 43.5t-40.5 116.5v108h-77v38h77v148h-97v36h97v151h42v-151h146v-36h-146v-148h126v-38h-126v-99q0 -64 30 -97t89 -33q23 0 42 3z" />
    <glyph glyph-name="tcaron" unicode="&#x165;" horiz-adv-x="314" 
d="M258 705l-25 -169h-28v169h53zM308 36l-2 -39q-21 -3 -45 -3q-75 0 -115.5 43.5t-40.5 116.5v294h-97v36h97v151h42v-151h146v-36h-146v-285q0 -64 30 -97t89 -33q23 0 42 3z" />
    <glyph glyph-name="uni0163" unicode="&#x163;" horiz-adv-x="314" 
d="M294.5 -58q21.5 -17 21.5 -52t-28 -57.5t-77 -22.5q-21 0 -44.5 4.5t-40.5 14.5l14 34q32 -14 73 -14q30 0 45.5 11t15.5 30q0 15 -9.5 23t-27.5 8q-21 0 -50 -11l-19 14l9 89q-35 19 -53.5 55.5t-18.5 85.5v294h-97v36h97v151h42v-151h146v-36h-146v-285q0 -64 30 -97
t89 -33q23 0 42 3l-2 -39q-21 -3 -45 -3q-26 0 -43 4l-4 -43q12 4 30 4q29 0 50.5 -17z" />
    <glyph glyph-name="uni021B" unicode="&#x21b;" horiz-adv-x="314" 
d="M308 36l-2 -39q-21 -3 -45 -3q-75 0 -115.5 43.5t-40.5 116.5v294h-97v36h97v151h42v-151h146v-36h-146v-285q0 -64 30 -97t89 -33q23 0 42 3zM240 -76v-54q0 -36 -10.5 -65.5t-35.5 -54.5l-27 21q20 22 27.5 42.5t8.5 45.5h-33v65h70z" />
    <glyph glyph-name="uni1E97" unicode="&#x1e97;" horiz-adv-x="314" 
d="M308 36l-2 -39q-21 -3 -45 -3q-75 0 -115.5 43.5t-40.5 116.5v294h-97v36h97v151h42v-151h146v-36h-146v-285q0 -64 30 -97t89 -33q23 0 42 3zM15 801h61v-60h-61v60zM176 801h61v-60h-61v60z" />
    <glyph glyph-name="uni1E6D" unicode="&#x1e6d;" horiz-adv-x="314" 
d="M308 36l-2 -39q-21 -3 -45 -3q-75 0 -115.5 43.5t-40.5 116.5v294h-97v36h97v151h42v-151h146v-36h-146v-285q0 -64 30 -97t89 -33q23 0 42 3zM172 -109h66v-64h-66v64z" />
    <glyph glyph-name="uni1E6F" unicode="&#x1e6f;" horiz-adv-x="314" 
d="M308 36l-2 -39q-21 -3 -45 -3q-75 0 -115.5 43.5t-40.5 116.5v294h-97v36h97v151h42v-151h146v-36h-146v-285q0 -64 30 -97t89 -33q23 0 42 3zM59 -162v43h292v-43h-292z" />
    <glyph glyph-name="u" unicode="u" horiz-adv-x="545" 
d="M460 484v-484h-41v91q-23 -47 -66.5 -72.5t-98.5 -25.5q-84 0 -127.5 47t-43.5 138v306h42v-302q0 -76 31 -112t96 -36q75 0 120.5 47.5t45.5 126.5v276h42z" />
    <glyph glyph-name="uacute" unicode="&#xfa;" horiz-adv-x="545" 
d="M460 484v-484h-41v91q-23 -47 -66.5 -72.5t-98.5 -25.5q-84 0 -127.5 47t-43.5 138v306h42v-302q0 -76 31 -112t96 -36q75 0 120.5 47.5t45.5 126.5v276h42zM291 549h-36l100 200h62z" />
    <glyph glyph-name="ubreve" unicode="&#x16d;" horiz-adv-x="545" 
d="M460 484v-484h-41v91q-23 -47 -66.5 -72.5t-98.5 -25.5q-84 0 -127.5 47t-43.5 138v306h42v-302q0 -76 31 -112t96 -36q75 0 120.5 47.5t45.5 126.5v276h42zM183 611.5q-40 27.5 -63 88.5l40 17q22 -50 49.5 -71.5t63.5 -21.5t63.5 21.5t49.5 71.5l40 -16
q-21 -61 -61.5 -89t-91.5 -28q-50 0 -90 27.5z" />
    <glyph glyph-name="ucircumflex" unicode="&#xfb;" horiz-adv-x="545" 
d="M460 484v-484h-41v91q-23 -47 -66.5 -72.5t-98.5 -25.5q-84 0 -127.5 47t-43.5 138v306h42v-302q0 -76 31 -112t96 -36q75 0 120.5 47.5t45.5 126.5v276h42zM194 549h-51l111 200h38l111 -200h-51l-79 158z" />
    <glyph glyph-name="uni0215" unicode="&#x215;" horiz-adv-x="545" 
d="M460 484v-484h-41v91q-23 -47 -66.5 -72.5t-98.5 -25.5q-84 0 -127.5 47t-43.5 138v306h42v-302q0 -76 31 -112t96 -36q75 0 120.5 47.5t45.5 126.5v276h42zM204 549l-80 200h56l52 -200h-28zM314 549l-79 200h55l52 -200h-28z" />
    <glyph glyph-name="udieresis" unicode="&#xfc;" horiz-adv-x="545" 
d="M460 484v-484h-41v91q-23 -47 -66.5 -72.5t-98.5 -25.5q-84 0 -127.5 47t-43.5 138v306h42v-302q0 -76 31 -112t96 -36q75 0 120.5 47.5t45.5 126.5v276h42zM162 680h61v-60h-61v60zM323 680h61v-60h-61v60z" />
    <glyph glyph-name="uni1EE5" unicode="&#x1ee5;" horiz-adv-x="545" 
d="M460 484v-484h-41v91q-23 -47 -66.5 -72.5t-98.5 -25.5q-84 0 -127.5 47t-43.5 138v306h42v-302q0 -76 31 -112t96 -36q75 0 120.5 47.5t45.5 126.5v276h42zM240 -109h66v-64h-66v64z" />
    <glyph glyph-name="ugrave" unicode="&#xf9;" horiz-adv-x="545" 
d="M460 484v-484h-41v91q-23 -47 -66.5 -72.5t-98.5 -25.5q-84 0 -127.5 47t-43.5 138v306h42v-302q0 -76 31 -112t96 -36q75 0 120.5 47.5t45.5 126.5v276h42zM255 549l-126 200h62l100 -200h-36z" />
    <glyph glyph-name="uni1EE7" unicode="&#x1ee7;" horiz-adv-x="545" 
d="M460 484v-484h-41v91q-23 -47 -66.5 -72.5t-98.5 -25.5q-84 0 -127.5 47t-43.5 138v306h42v-302q0 -76 31 -112t96 -36q75 0 120.5 47.5t45.5 126.5v276h42zM295 549h-40v30q0 19 10 33.5t29 33.5q14 13 21 22.5t7 19.5q0 12 -12 18.5t-33 6.5q-31 0 -64 -12l-12 36
q37 17 77 17q42 0 66.5 -18t24.5 -47q0 -23 -9.5 -36t-29.5 -30q-18 -16 -26.5 -28t-8.5 -31v-15z" />
    <glyph glyph-name="uhorn" unicode="&#x1b0;" horiz-adv-x="553" 
d="M580 616v-20q0 -62 -31 -99t-89 -44v-453h-41v91q-23 -47 -66.5 -72.5t-98.5 -25.5q-84 0 -127.5 47t-43.5 138v306h42v-302q0 -76 31 -112t96 -36q75 0 120.5 47.5t45.5 126.5v276h13q57 1 83 29.5t26 90.5v12h40z" />
    <glyph glyph-name="uni1EE9" unicode="&#x1ee9;" horiz-adv-x="553" 
d="M580 616v-20q0 -62 -31 -99t-89 -44v-453h-41v91q-23 -47 -66.5 -72.5t-98.5 -25.5q-84 0 -127.5 47t-43.5 138v306h42v-302q0 -76 31 -112t96 -36q75 0 120.5 47.5t45.5 126.5v276h13q57 1 83 29.5t26 90.5v12h40zM291 549h-36l100 200h62z" />
    <glyph glyph-name="uni1EF1" unicode="&#x1ef1;" horiz-adv-x="553" 
d="M580 616v-20q0 -62 -31 -99t-89 -44v-453h-41v91q-23 -47 -66.5 -72.5t-98.5 -25.5q-84 0 -127.5 47t-43.5 138v306h42v-302q0 -76 31 -112t96 -36q75 0 120.5 47.5t45.5 126.5v276h13q57 1 83 29.5t26 90.5v12h40zM240 -109h66v-64h-66v64z" />
    <glyph glyph-name="uni1EEB" unicode="&#x1eeb;" horiz-adv-x="553" 
d="M580 616v-20q0 -62 -31 -99t-89 -44v-453h-41v91q-23 -47 -66.5 -72.5t-98.5 -25.5q-84 0 -127.5 47t-43.5 138v306h42v-302q0 -76 31 -112t96 -36q75 0 120.5 47.5t45.5 126.5v276h13q57 1 83 29.5t26 90.5v12h40zM255 549l-126 200h62l100 -200h-36z" />
    <glyph glyph-name="uni1EED" unicode="&#x1eed;" horiz-adv-x="553" 
d="M580 616v-20q0 -62 -31 -99t-89 -44v-453h-41v91q-23 -47 -66.5 -72.5t-98.5 -25.5q-84 0 -127.5 47t-43.5 138v306h42v-302q0 -76 31 -112t96 -36q75 0 120.5 47.5t45.5 126.5v276h13q57 1 83 29.5t26 90.5v12h40zM295 549h-40v30q0 19 10 33.5t29 33.5q14 13 21 22.5
t7 19.5q0 12 -12 18.5t-33 6.5q-31 0 -64 -12l-12 36q37 17 77 17q42 0 66.5 -18t24.5 -47q0 -23 -9.5 -36t-29.5 -30q-18 -16 -26.5 -28t-8.5 -31v-15z" />
    <glyph glyph-name="uni1EEF" unicode="&#x1eef;" horiz-adv-x="553" 
d="M580 616v-20q0 -62 -31 -99t-89 -44v-453h-41v91q-23 -47 -66.5 -72.5t-98.5 -25.5q-84 0 -127.5 47t-43.5 138v306h42v-302q0 -76 31 -112t96 -36q75 0 120.5 47.5t45.5 126.5v276h13q57 1 83 29.5t26 90.5v12h40zM140 673.5q21 26.5 58 26.5q22 0 41.5 -8.5t46.5 -25.5
q20 -12 33.5 -18.5t24.5 -6.5q23 0 36.5 17t12.5 39h34q0 -43 -21 -69.5t-58 -26.5q-22 0 -42 9t-46 26q-20 12 -33.5 18.5t-24.5 6.5q-23 0 -36.5 -17t-12.5 -40h-34q0 43 21 69.5z" />
    <glyph glyph-name="uhungarumlaut" unicode="&#x171;" horiz-adv-x="545" 
d="M460 484v-484h-41v91q-23 -47 -66.5 -72.5t-98.5 -25.5q-84 0 -127.5 47t-43.5 138v306h42v-302q0 -76 31 -112t96 -36q75 0 120.5 47.5t45.5 126.5v276h42zM232 549h-28l52 200h55zM342 549h-28l52 200h56z" />
    <glyph glyph-name="uni0217" unicode="&#x217;" horiz-adv-x="545" 
d="M460 484v-484h-41v91q-23 -47 -66.5 -72.5t-98.5 -25.5q-84 0 -127.5 47t-43.5 138v306h42v-302q0 -76 31 -112t96 -36q75 0 120.5 47.5t45.5 126.5v276h42zM363 689q40 -28 63 -88l-40 -18q-22 50 -49.5 72t-63.5 22t-63.5 -22t-49.5 -72l-40 17q21 61 61.5 89t91.5 28
q50 0 90 -28z" />
    <glyph glyph-name="umacron" unicode="&#x16b;" horiz-adv-x="545" 
d="M460 484v-484h-41v91q-23 -47 -66.5 -72.5t-98.5 -25.5q-84 0 -127.5 47t-43.5 138v306h42v-302q0 -76 31 -112t96 -36q75 0 120.5 47.5t45.5 126.5v276h42zM127 629v43h292v-43h-292z" />
    <glyph glyph-name="uni1E7B" unicode="&#x1e7b;" horiz-adv-x="545" 
d="M460 484v-484h-41v91q-23 -47 -66.5 -72.5t-98.5 -25.5q-84 0 -127.5 47t-43.5 138v306h42v-302q0 -76 31 -112t96 -36q75 0 120.5 47.5t45.5 126.5v276h42zM127 629v43h292v-43h-292zM162 875h61v-60h-61v60zM323 875h61v-60h-61v60z" />
    <glyph glyph-name="uogonek" unicode="&#x173;" horiz-adv-x="545" 
d="M508 -167q-31 -23 -77 -23q-50 0 -80.5 28t-30.5 74q0 42 26 73.5t73 45.5v60q-23 -47 -66.5 -72.5t-98.5 -25.5q-84 0 -127.5 47t-43.5 138v306h42v-302q0 -76 31 -112t96 -36q75 0 120.5 47.5t45.5 126.5v276h42v-484h-3q-41 0 -67 -23.5t-26 -60.5q0 -32 18.5 -50
t50.5 -18q22 0 60 19z" />
    <glyph glyph-name="uring" unicode="&#x16f;" horiz-adv-x="545" 
d="M460 484v-484h-41v91q-23 -47 -66.5 -72.5t-98.5 -25.5q-84 0 -127.5 47t-43.5 138v306h42v-302q0 -76 31 -112t96 -36q75 0 120.5 47.5t45.5 126.5v276h42zM204.5 581.5q-28.5 27.5 -28.5 67.5t28.5 67.5t68.5 27.5t68.5 -27.5t28.5 -67.5t-28.5 -67.5t-68.5 -27.5
t-68.5 27.5zM309.5 611.5q14.5 15.5 14.5 37.5q0 23 -14.5 38t-36.5 15t-36.5 -15t-14.5 -38q0 -22 14.5 -37.5t36.5 -15.5t36.5 15.5z" />
    <glyph glyph-name="utilde" unicode="&#x169;" horiz-adv-x="545" 
d="M460 484v-484h-41v91q-23 -47 -66.5 -72.5t-98.5 -25.5q-84 0 -127.5 47t-43.5 138v306h42v-302q0 -76 31 -112t96 -36q75 0 120.5 47.5t45.5 126.5v276h42zM140 673.5q21 26.5 58 26.5q22 0 41.5 -8.5t46.5 -25.5q20 -12 33.5 -18.5t24.5 -6.5q23 0 36.5 17t12.5 39h34
q0 -43 -21 -69.5t-58 -26.5q-22 0 -42 9t-46 26q-20 12 -33.5 18.5t-24.5 6.5q-23 0 -36.5 -17t-12.5 -40h-34q0 43 21 69.5z" />
    <glyph glyph-name="uni1E79" unicode="&#x1e79;" horiz-adv-x="545" 
d="M460 484v-484h-41v91q-23 -47 -66.5 -72.5t-98.5 -25.5q-84 0 -127.5 47t-43.5 138v306h42v-302q0 -76 31 -112t96 -36q75 0 120.5 47.5t45.5 126.5v276h42zM140 673.5q21 26.5 58 26.5q22 0 41.5 -8.5t46.5 -25.5q20 -12 33.5 -18.5t24.5 -6.5q23 0 36.5 17t12.5 39h34
q0 -43 -21 -69.5t-58 -26.5q-22 0 -42 9t-46 26q-20 12 -33.5 18.5t-24.5 6.5q-23 0 -36.5 -17t-12.5 -40h-34q0 43 21 69.5zM291 744h-36l100 200h62z" />
    <glyph glyph-name="v" unicode="v" horiz-adv-x="504" 
d="M438 484h44l-206 -484h-48l-206 484h45l185 -447z" />
    <glyph glyph-name="w" unicode="w" horiz-adv-x="830" 
d="M746 484h45l-172 -484h-50l-153 432l-156 -432h-50l-170 484h46l149 -435l156 435h51l152 -434z" />
    <glyph glyph-name="wacute" unicode="&#x1e83;" horiz-adv-x="830" 
d="M746 484h45l-172 -484h-50l-153 432l-156 -432h-50l-170 484h46l149 -435l156 435h51l152 -434zM433 549h-36l100 200h62z" />
    <glyph glyph-name="wcircumflex" unicode="&#x175;" horiz-adv-x="830" 
d="M746 484h45l-172 -484h-50l-153 432l-156 -432h-50l-170 484h46l149 -435l156 435h51l152 -434zM336 549h-51l111 200h38l111 -200h-51l-79 158z" />
    <glyph glyph-name="wdieresis" unicode="&#x1e85;" horiz-adv-x="830" 
d="M746 484h45l-172 -484h-50l-153 432l-156 -432h-50l-170 484h46l149 -435l156 435h51l152 -434zM304 680h61v-60h-61v60zM465 680h61v-60h-61v60z" />
    <glyph glyph-name="wgrave" unicode="&#x1e81;" horiz-adv-x="830" 
d="M746 484h45l-172 -484h-50l-153 432l-156 -432h-50l-170 484h46l149 -435l156 435h51l152 -434zM397 549l-126 200h62l100 -200h-36z" />
    <glyph glyph-name="x" unicode="x" horiz-adv-x="506" 
d="M280 250l199 -250h-55l-171 214l-171 -214h-54l199 250l-188 234h54l160 -201l160 201h55z" />
    <glyph glyph-name="y" unicode="y" horiz-adv-x="504" 
d="M438 484h44l-284 -664h-43l75 175l-208 489h45l185 -447z" />
    <glyph glyph-name="yacute" unicode="&#xfd;" horiz-adv-x="504" 
d="M438 484h44l-284 -664h-43l75 175l-208 489h45l185 -447zM270 549h-36l100 200h62z" />
    <glyph glyph-name="ycircumflex" unicode="&#x177;" horiz-adv-x="504" 
d="M438 484h44l-284 -664h-43l75 175l-208 489h45l185 -447zM173 549h-51l111 200h38l111 -200h-51l-79 158z" />
    <glyph glyph-name="ydieresis" unicode="&#xff;" horiz-adv-x="504" 
d="M438 484h44l-284 -664h-43l75 175l-208 489h45l185 -447zM141 680h61v-60h-61v60zM302 680h61v-60h-61v60z" />
    <glyph glyph-name="uni1E8F" unicode="&#x1e8f;" horiz-adv-x="504" 
d="M438 484h44l-284 -664h-43l75 175l-208 489h45l185 -447zM220 682h64v-63h-64v63z" />
    <glyph glyph-name="uni1EF5" unicode="&#x1ef5;" horiz-adv-x="504" 
d="M438 484h44l-284 -664h-43l75 175l-208 489h45l185 -447zM338 -109h66v-64h-66v64z" />
    <glyph glyph-name="ygrave" unicode="&#x1ef3;" horiz-adv-x="504" 
d="M438 484h44l-284 -664h-43l75 175l-208 489h45l185 -447zM234 549l-126 200h62l100 -200h-36z" />
    <glyph glyph-name="uni1EF7" unicode="&#x1ef7;" horiz-adv-x="504" 
d="M438 484h44l-284 -664h-43l75 175l-208 489h45l185 -447zM274 549h-40v30q0 19 10 33.5t29 33.5q14 13 21 22.5t7 19.5q0 12 -12 18.5t-33 6.5q-31 0 -64 -12l-12 36q37 17 77 17q42 0 66.5 -18t24.5 -47q0 -23 -9.5 -36t-29.5 -30q-18 -16 -26.5 -28t-8.5 -31v-15z" />
    <glyph glyph-name="uni0233" unicode="&#x233;" horiz-adv-x="504" 
d="M438 484h44l-284 -664h-43l75 175l-208 489h45l185 -447zM106 629v43h292v-43h-292z" />
    <glyph glyph-name="uni1EF9" unicode="&#x1ef9;" horiz-adv-x="504" 
d="M438 484h44l-284 -664h-43l75 175l-208 489h45l185 -447zM119 673.5q21 26.5 58 26.5q22 0 41.5 -8.5t46.5 -25.5q20 -12 33.5 -18.5t24.5 -6.5q23 0 36.5 17t12.5 39h34q0 -43 -21 -69.5t-58 -26.5q-22 0 -42 9t-46 26q-20 12 -33.5 18.5t-24.5 6.5q-23 0 -36.5 -17
t-12.5 -40h-34q0 43 21 69.5z" />
    <glyph glyph-name="z" unicode="z" horiz-adv-x="496" 
d="M107 37h343v-37h-401v29l336 419h-321v36h374v-34z" />
    <glyph glyph-name="zacute" unicode="&#x17a;" horiz-adv-x="496" 
d="M107 37h343v-37h-401v29l336 419h-321v36h374v-34zM268 549h-36l100 200h62z" />
    <glyph glyph-name="zcaron" unicode="&#x17e;" horiz-adv-x="496" 
d="M107 37h343v-37h-401v29l336 419h-321v36h374v-34zM329 749h51l-111 -200h-38l-111 200h51l79 -158z" />
    <glyph glyph-name="zdotaccent" unicode="&#x17c;" horiz-adv-x="496" 
d="M107 37h343v-37h-401v29l336 419h-321v36h374v-34zM218 682h64v-63h-64v63z" />
    <glyph glyph-name="uni1E93" unicode="&#x1e93;" horiz-adv-x="496" 
d="M107 37h343v-37h-401v29l336 419h-321v36h374v-34zM214 -109h66v-64h-66v64z" />
    <glyph glyph-name="iacute_j.loclNLD" horiz-adv-x="424" 
d="M85 0v484h42v-484h-42zM124 549h-36l100 200h62zM339 -11q0 -77 -40.5 -120.5t-115.5 -48.5l-43 -3l-4 38l42 2q59 5 89 38t30 93v496h42v-495zM336 549h-36l100 200h62z" />
    <glyph glyph-name="a.ss01" horiz-adv-x="565" 
d="M480 484v-484h-42v98q-22 -51 -65.5 -78t-104.5 -27q-64 0 -113 31t-76 87.5t-27 131.5q0 76 27 133t76 88.5t113 31.5q61 0 104.5 -26.5t65.5 -76.5v91h42zM394 89q44 55 44 156t-44 155.5t-126 54.5q-80 0 -125.5 -56t-45.5 -156q0 -99 45.5 -154t126.5 -55t125 55z
" />
    <glyph glyph-name="aacute.ss01" horiz-adv-x="565" 
d="M480 484v-484h-42v98q-22 -51 -65.5 -78t-104.5 -27q-64 0 -113 31t-76 87.5t-27 131.5q0 76 27 133t76 88.5t113 31.5q61 0 104.5 -26.5t65.5 -76.5v91h42zM394 89q44 55 44 156t-44 155.5t-126 54.5q-80 0 -125.5 -56t-45.5 -156q0 -99 45.5 -154t126.5 -55t125 55z
M302 549h-36l100 200h62z" />
    <glyph glyph-name="abreve.ss01" horiz-adv-x="565" 
d="M480 484v-484h-42v98q-22 -51 -65.5 -78t-104.5 -27q-64 0 -113 31t-76 87.5t-27 131.5q0 76 27 133t76 88.5t113 31.5q61 0 104.5 -26.5t65.5 -76.5v91h42zM394 89q44 55 44 156t-44 155.5t-126 54.5q-80 0 -125.5 -56t-45.5 -156q0 -99 45.5 -154t126.5 -55t125 55z
M194 611.5q-40 27.5 -63 88.5l40 17q22 -50 49.5 -71.5t63.5 -21.5t63.5 21.5t49.5 71.5l40 -16q-21 -61 -61.5 -89t-91.5 -28q-50 0 -90 27.5z" />
    <glyph glyph-name="uni1EAF.ss01" horiz-adv-x="565" 
d="M480 484v-484h-42v98q-22 -51 -65.5 -78t-104.5 -27q-64 0 -113 31t-76 87.5t-27 131.5q0 76 27 133t76 88.5t113 31.5q61 0 104.5 -26.5t65.5 -76.5v91h42zM394 89q44 55 44 156t-44 155.5t-126 54.5q-80 0 -125.5 -56t-45.5 -156q0 -99 45.5 -154t126.5 -55t125 55z
M301 650h-34l99 142h61zM192.5 568.5q-40.5 24.5 -62.5 80.5l42 18q26 -47 51 -63.5t61 -16.5t61 16.5t51 63.5l42 -18q-43 -105 -154 -105q-51 0 -91.5 24.5z" />
    <glyph glyph-name="uni1EB7.ss01" horiz-adv-x="565" 
d="M480 484v-484h-42v98q-22 -51 -65.5 -78t-104.5 -27q-64 0 -113 31t-76 87.5t-27 131.5q0 76 27 133t76 88.5t113 31.5q61 0 104.5 -26.5t65.5 -76.5v91h42zM394 89q44 55 44 156t-44 155.5t-126 54.5q-80 0 -125.5 -56t-45.5 -156q0 -99 45.5 -154t126.5 -55t125 55z
M251 -109h66v-64h-66v64zM194 611.5q-40 27.5 -63 88.5l40 17q22 -50 49.5 -71.5t63.5 -21.5t63.5 21.5t49.5 71.5l40 -16q-21 -61 -61.5 -89t-91.5 -28q-50 0 -90 27.5z" />
    <glyph glyph-name="uni1EB1.ss01" horiz-adv-x="565" 
d="M480 484v-484h-42v98q-22 -51 -65.5 -78t-104.5 -27q-64 0 -113 31t-76 87.5t-27 131.5q0 76 27 133t76 88.5t113 31.5q61 0 104.5 -26.5t65.5 -76.5v91h42zM394 89q44 55 44 156t-44 155.5t-126 54.5q-80 0 -125.5 -56t-45.5 -156q0 -99 45.5 -154t126.5 -55t125 55z
M267 650l-126 142h61l99 -142h-34zM130 649l42 18q26 -47 51 -63.5t61 -16.5t61 16.5t51 63.5l42 -18q-22 -56 -62.5 -80.5t-91.5 -24.5q-111 0 -154 105z" />
    <glyph glyph-name="uni1EB3.ss01" horiz-adv-x="565" 
d="M480 484v-484h-42v98q-22 -51 -65.5 -78t-104.5 -27q-64 0 -113 31t-76 87.5t-27 131.5q0 76 27 133t76 88.5t113 31.5q61 0 104.5 -26.5t65.5 -76.5v91h42zM394 89q44 55 44 156t-44 155.5t-126 54.5q-80 0 -125.5 -56t-45.5 -156q0 -99 45.5 -154t126.5 -55t125 55z
M305 650h-41v15q0 17 10.5 26.5t29.5 17.5q15 7 21.5 12t6.5 13q0 10 -12 15t-33 5q-31 0 -63 -12l-12 38q39 17 74 17q44 0 69 -17.5t25 -47.5q0 -17 -11 -26.5t-32 -18.5q-16 -7 -24 -13t-8 -15v-9zM130 649l42 18q26 -47 51 -63.5t61 -16.5t61 16.5t51 63.5l42 -18
q-22 -56 -62.5 -80.5t-91.5 -24.5q-111 0 -154 105z" />
    <glyph glyph-name="uni1EB5.ss01" horiz-adv-x="565" 
d="M480 484v-484h-42v98q-22 -51 -65.5 -78t-104.5 -27q-64 0 -113 31t-76 87.5t-27 131.5q0 76 27 133t76 88.5t113 31.5q61 0 104.5 -26.5t65.5 -76.5v91h42zM394 89q44 55 44 156t-44 155.5t-126 54.5q-80 0 -125.5 -56t-45.5 -156q0 -99 45.5 -154t126.5 -55t125 55z
M151 774q21 27 58 27q22 0 41.5 -9t46.5 -27q39 -26 58 -26q23 0 36.5 18t12.5 41h34q0 -47 -21 -74t-58 -27q-22 0 -41.5 9t-46.5 27q-39 26 -58 26q-23 0 -36.5 -18t-12.5 -41h-34q0 47 21 74zM130 649l42 18q26 -47 51 -63.5t61 -16.5t61 16.5t51 63.5l42 -18
q-22 -56 -62.5 -80.5t-91.5 -24.5q-111 0 -154 105z" />
    <glyph glyph-name="uni01CE.ss01" horiz-adv-x="565" 
d="M480 484v-484h-42v98q-22 -51 -65.5 -78t-104.5 -27q-64 0 -113 31t-76 87.5t-27 131.5q0 76 27 133t76 88.5t113 31.5q61 0 104.5 -26.5t65.5 -76.5v91h42zM394 89q44 55 44 156t-44 155.5t-126 54.5q-80 0 -125.5 -56t-45.5 -156q0 -99 45.5 -154t126.5 -55t125 55z
M363 749h51l-111 -200h-38l-111 200h51l79 -158z" />
    <glyph glyph-name="acircumflex.ss01" horiz-adv-x="565" 
d="M480 484v-484h-42v98q-22 -51 -65.5 -78t-104.5 -27q-64 0 -113 31t-76 87.5t-27 131.5q0 76 27 133t76 88.5t113 31.5q61 0 104.5 -26.5t65.5 -76.5v91h42zM394 89q44 55 44 156t-44 155.5t-126 54.5q-80 0 -125.5 -56t-45.5 -156q0 -99 45.5 -154t126.5 -55t125 55z
M205 549h-51l111 200h38l111 -200h-51l-79 158z" />
    <glyph glyph-name="uni1EA5.ss01" horiz-adv-x="565" 
d="M480 484v-484h-42v98q-22 -51 -65.5 -78t-104.5 -27q-64 0 -113 31t-76 87.5t-27 131.5q0 76 27 133t76 88.5t113 31.5q61 0 104.5 -26.5t65.5 -76.5v91h42zM394 89q44 55 44 156t-44 155.5t-126 54.5q-80 0 -125.5 -56t-45.5 -156q0 -99 45.5 -154t126.5 -55t125 55z
M399 650h-36l103 142h62zM205 549h-51l112 152h36l112 -152h-51l-79 115z" />
    <glyph glyph-name="uni1EAD.ss01" horiz-adv-x="565" 
d="M480 484v-484h-42v98q-22 -51 -65.5 -78t-104.5 -27q-64 0 -113 31t-76 87.5t-27 131.5q0 76 27 133t76 88.5t113 31.5q61 0 104.5 -26.5t65.5 -76.5v91h42zM394 89q44 55 44 156t-44 155.5t-126 54.5q-80 0 -125.5 -56t-45.5 -156q0 -99 45.5 -154t126.5 -55t125 55z
M251 -109h66v-64h-66v64zM205 549h-51l111 200h38l111 -200h-51l-79 158z" />
    <glyph glyph-name="uni1EA7.ss01" horiz-adv-x="565" 
d="M480 484v-484h-42v98q-22 -51 -65.5 -78t-104.5 -27q-64 0 -113 31t-76 87.5t-27 131.5q0 76 27 133t76 88.5t113 31.5q61 0 104.5 -26.5t65.5 -76.5v91h42zM394 89q44 55 44 156t-44 155.5t-126 54.5q-80 0 -125.5 -56t-45.5 -156q0 -99 45.5 -154t126.5 -55t125 55z
M406 650l-106 142h62l80 -142h-36zM205 549h-51l112 152h36l112 -152h-51l-79 115z" />
    <glyph glyph-name="uni1EA9.ss01" horiz-adv-x="565" 
d="M480 484v-484h-42v98q-22 -51 -65.5 -78t-104.5 -27q-64 0 -113 31t-76 87.5t-27 131.5q0 76 27 133t76 88.5t113 31.5q61 0 104.5 -26.5t65.5 -76.5v91h42zM394 89q44 55 44 156t-44 155.5t-126 54.5q-80 0 -125.5 -56t-45.5 -156q0 -99 45.5 -154t126.5 -55t125 55z
M404 650h-42v15q0 17 11 26.5t30 17.5q15 7 21.5 12t6.5 13q0 10 -12.5 15t-33.5 5q-30 0 -62 -12l-12 38q39 17 73 17q45 0 70 -17.5t25 -47.5q0 -17 -11 -26.5t-32 -18.5q-16 -7 -24 -13t-8 -15v-9zM205 549h-51l112 152h36l112 -152h-51l-79 115z" />
    <glyph glyph-name="uni1EAB.ss01" horiz-adv-x="565" 
d="M480 484v-484h-42v98q-22 -51 -65.5 -78t-104.5 -27q-64 0 -113 31t-76 87.5t-27 131.5q0 76 27 133t76 88.5t113 31.5q61 0 104.5 -26.5t65.5 -76.5v91h42zM394 89q44 55 44 156t-44 155.5t-126 54.5q-80 0 -125.5 -56t-45.5 -156q0 -99 45.5 -154t126.5 -55t125 55z
M151 783q21 26 58 26q22 0 41 -7t47 -21q15 -8 31 -14t27 -6q23 0 36.5 16.5t12.5 35.5h34q0 -43 -21 -69t-58 -26q-22 0 -41 7t-47 21q-20 10 -33.5 15.5t-24.5 5.5q-23 0 -36.5 -17t-12.5 -36h-34q0 43 21 69zM205 549h-51l112 152h36l112 -152h-51l-79 115z" />
    <glyph glyph-name="uni0201.ss01" horiz-adv-x="565" 
d="M480 484v-484h-42v98q-22 -51 -65.5 -78t-104.5 -27q-64 0 -113 31t-76 87.5t-27 131.5q0 76 27 133t76 88.5t113 31.5q61 0 104.5 -26.5t65.5 -76.5v91h42zM394 89q44 55 44 156t-44 155.5t-126 54.5q-80 0 -125.5 -56t-45.5 -156q0 -99 45.5 -154t126.5 -55t125 55z
M215 549l-80 200h56l52 -200h-28zM325 549l-79 200h55l52 -200h-28z" />
    <glyph glyph-name="adieresis.ss01" horiz-adv-x="565" 
d="M480 484v-484h-42v98q-22 -51 -65.5 -78t-104.5 -27q-64 0 -113 31t-76 87.5t-27 131.5q0 76 27 133t76 88.5t113 31.5q61 0 104.5 -26.5t65.5 -76.5v91h42zM394 89q44 55 44 156t-44 155.5t-126 54.5q-80 0 -125.5 -56t-45.5 -156q0 -99 45.5 -154t126.5 -55t125 55z
M173 680h61v-60h-61v60zM334 680h61v-60h-61v60z" />
    <glyph glyph-name="uni0227.ss01" horiz-adv-x="565" 
d="M480 484v-484h-42v98q-22 -51 -65.5 -78t-104.5 -27q-64 0 -113 31t-76 87.5t-27 131.5q0 76 27 133t76 88.5t113 31.5q61 0 104.5 -26.5t65.5 -76.5v91h42zM394 89q44 55 44 156t-44 155.5t-126 54.5q-80 0 -125.5 -56t-45.5 -156q0 -99 45.5 -154t126.5 -55t125 55z
M252 682h64v-63h-64v63z" />
    <glyph glyph-name="uni1EA1.ss01" horiz-adv-x="565" 
d="M480 484v-484h-42v98q-22 -51 -65.5 -78t-104.5 -27q-64 0 -113 31t-76 87.5t-27 131.5q0 76 27 133t76 88.5t113 31.5q61 0 104.5 -26.5t65.5 -76.5v91h42zM394 89q44 55 44 156t-44 155.5t-126 54.5q-80 0 -125.5 -56t-45.5 -156q0 -99 45.5 -154t126.5 -55t125 55z
M251 -109h66v-64h-66v64z" />
    <glyph glyph-name="agrave.ss01" horiz-adv-x="565" 
d="M480 484v-484h-42v98q-22 -51 -65.5 -78t-104.5 -27q-64 0 -113 31t-76 87.5t-27 131.5q0 76 27 133t76 88.5t113 31.5q61 0 104.5 -26.5t65.5 -76.5v91h42zM394 89q44 55 44 156t-44 155.5t-126 54.5q-80 0 -125.5 -56t-45.5 -156q0 -99 45.5 -154t126.5 -55t125 55z
M266 549l-126 200h62l100 -200h-36z" />
    <glyph glyph-name="uni1EA3.ss01" horiz-adv-x="565" 
d="M480 484v-484h-42v98q-22 -51 -65.5 -78t-104.5 -27q-64 0 -113 31t-76 87.5t-27 131.5q0 76 27 133t76 88.5t113 31.5q61 0 104.5 -26.5t65.5 -76.5v91h42zM394 89q44 55 44 156t-44 155.5t-126 54.5q-80 0 -125.5 -56t-45.5 -156q0 -99 45.5 -154t126.5 -55t125 55z
M306 549h-40v30q0 19 10 33.5t29 33.5q14 13 21 22.5t7 19.5q0 12 -12 18.5t-33 6.5q-31 0 -64 -12l-12 36q37 17 77 17q42 0 66.5 -18t24.5 -47q0 -23 -9.5 -36t-29.5 -30q-18 -16 -26.5 -28t-8.5 -31v-15z" />
    <glyph glyph-name="uni0203.ss01" horiz-adv-x="565" 
d="M480 484v-484h-42v98q-22 -51 -65.5 -78t-104.5 -27q-64 0 -113 31t-76 87.5t-27 131.5q0 76 27 133t76 88.5t113 31.5q61 0 104.5 -26.5t65.5 -76.5v91h42zM394 89q44 55 44 156t-44 155.5t-126 54.5q-80 0 -125.5 -56t-45.5 -156q0 -99 45.5 -154t126.5 -55t125 55z
M374 689q40 -28 63 -88l-40 -18q-22 50 -49.5 72t-63.5 22t-63.5 -22t-49.5 -72l-40 17q21 61 61.5 89t91.5 28q50 0 90 -28z" />
    <glyph glyph-name="amacron.ss01" horiz-adv-x="565" 
d="M480 484v-484h-42v98q-22 -51 -65.5 -78t-104.5 -27q-64 0 -113 31t-76 87.5t-27 131.5q0 76 27 133t76 88.5t113 31.5q61 0 104.5 -26.5t65.5 -76.5v91h42zM394 89q44 55 44 156t-44 155.5t-126 54.5q-80 0 -125.5 -56t-45.5 -156q0 -99 45.5 -154t126.5 -55t125 55z
M138 629v43h292v-43h-292z" />
    <glyph glyph-name="aogonek.ss01" horiz-adv-x="565" 
d="M528 -167q-31 -23 -78 -23q-50 0 -80.5 28t-30.5 74q0 42 26 73t73 45v68q-22 -51 -65.5 -78t-104.5 -27q-64 0 -113 31t-76 87.5t-27 131.5q0 76 27 133t76 88.5t113 31.5q61 0 104.5 -26.5t65.5 -76.5v91h42v-484h-4q-41 0 -67 -23.5t-26 -60.5q0 -31 18.5 -49.5
t50.5 -18.5q24 0 60 19zM394 89q44 55 44 156t-44 155.5t-126 54.5q-80 0 -125.5 -56t-45.5 -156q0 -99 45.5 -154t126.5 -55t125 55z" />
    <glyph glyph-name="aring.ss01" horiz-adv-x="565" 
d="M480 484v-484h-42v98q-22 -51 -65.5 -78t-104.5 -27q-64 0 -113 31t-76 87.5t-27 131.5q0 76 27 133t76 88.5t113 31.5q61 0 104.5 -26.5t65.5 -76.5v91h42zM394 89q44 55 44 156t-44 155.5t-126 54.5q-80 0 -125.5 -56t-45.5 -156q0 -99 45.5 -154t126.5 -55t125 55z
M215.5 581.5q-28.5 27.5 -28.5 67.5t28.5 67.5t68.5 27.5t68.5 -27.5t28.5 -67.5t-28.5 -67.5t-68.5 -27.5t-68.5 27.5zM320.5 611.5q14.5 15.5 14.5 37.5q0 23 -14.5 38t-36.5 15t-36.5 -15t-14.5 -38q0 -22 14.5 -37.5t36.5 -15.5t36.5 15.5z" />
    <glyph glyph-name="aringacute.ss01" horiz-adv-x="565" 
d="M215 583q-28 27 -28 67t28 67.5t69 27.5q28 0 51 -14l95 130l68 -14l-135 -142q17 -25 17 -55q0 -40 -28 -67t-68 -27q-41 0 -69 27zM247.5 688q-14.5 -15 -14.5 -38q0 -22 14.5 -37.5t36.5 -15.5q21 0 35.5 15.5t14.5 37.5q0 23 -14 38t-36 15t-36.5 -15zM438 484h42
v-484h-42v98q-22 -51 -65.5 -78t-104.5 -27q-64 0 -113 31t-76 87.5t-27 131.5q0 76 27 133t76 88.5t113 31.5q61 0 104.5 -26.5t65.5 -76.5v91zM394 89q44 55 44 156t-44 155.5t-126 54.5q-80 0 -125.5 -56t-45.5 -156q0 -99 45.5 -154t126.5 -55t125 55z" />
    <glyph glyph-name="atilde.ss01" horiz-adv-x="565" 
d="M480 484v-484h-42v98q-22 -51 -65.5 -78t-104.5 -27q-64 0 -113 31t-76 87.5t-27 131.5q0 76 27 133t76 88.5t113 31.5q61 0 104.5 -26.5t65.5 -76.5v91h42zM394 89q44 55 44 156t-44 155.5t-126 54.5q-80 0 -125.5 -56t-45.5 -156q0 -99 45.5 -154t126.5 -55t125 55z
M151 673.5q21 26.5 58 26.5q22 0 41.5 -8.5t46.5 -25.5q20 -12 33.5 -18.5t24.5 -6.5q23 0 36.5 17t12.5 39h34q0 -43 -21 -69.5t-58 -26.5q-22 0 -42 9t-46 26q-20 12 -33.5 18.5t-24.5 6.5q-23 0 -36.5 -17t-12.5 -40h-34q0 43 21 69.5z" />
    <glyph glyph-name="I_J.loclNLD" horiz-adv-x="530" 
d="M96 0v705h41v-705h-41zM223 32l51 4q56 4 87.5 42.5t31.5 100.5v526h41v-528q0 -80 -40.5 -127t-116.5 -52l-50 -4z" />
    <glyph glyph-name="i_j.loclNLD" horiz-adv-x="424" 
d="M85 0v484h42v-484h-42zM74 682h64v-63h-64v63zM339 -11q0 -77 -40.5 -120.5t-115.5 -48.5l-43 -3l-4 38l42 2q59 5 89 38t30 93v496h42v-495zM286 682h64v-63h-64v63z" />
    <glyph glyph-name="ordfeminine" unicode="&#xaa;" horiz-adv-x="325" 
d="M272 598v-183h-42v44q-13 -23 -36.5 -36t-51.5 -13q-45 0 -75 25t-30 61q0 33 17 51.5t55.5 26.5t107.5 8h13v20q0 39 -16 56t-49 17q-50 0 -100 -33l-16 31q23 16 54 26.5t61 10.5q108 0 108 -112zM205.5 470q24.5 25 24.5 66v18h-11q-57 0 -86.5 -5.5t-40 -17
t-10.5 -30.5q0 -24 18 -40t45 -16q36 0 60.5 25z" />
    <glyph glyph-name="ordmasculine" unicode="&#xba;" horiz-adv-x="325" 
d="M63 450.5q-37 40.5 -37 109.5t37 109.5t98 40.5t99 -40.5t38 -109.5t-38 -109.5t-99 -40.5t-98 40.5zM254 560q0 55 -23.5 85t-69.5 30q-45 0 -68.5 -30.5t-23.5 -84.5q0 -56 23.5 -85.5t68.5 -29.5q93 0 93 115z" />
    <glyph glyph-name="uni0394" unicode="&#x394;" horiz-adv-x="714" 
d="M387 705l319 -757l-33 39l-722 13l81 31l334 744zM619 38l-266 608l-267 -608h533z" />
    <glyph glyph-name="Sigma" unicode="&#x3a3;" horiz-adv-x="569" 
d="M529 667h-437l254 -368l1 1v-2l12 -17v-36l-12 -17v-2l-1 1l-254 -369h437v-38h-464l-1 -2v2h-25v31l283 412l-283 411v31h25v2l1 -2h464v-38z" />
    <glyph glyph-name="uni03A9" unicode="&#x3a9;" horiz-adv-x="760" 
d="M682 342q-18 -53 -61 -123.5t-123 -180.5h198v-38h-244v36q79 114 122 187.5t62 126.5t19 99q0 68 -33.5 118.5t-95.5 77.5t-146 27t-146 -27t-95.5 -77.5t-33.5 -118.5q0 -69 44 -159t159 -254v-36h-244v38h199q-86 123 -128 192.5t-58 118t-16 100.5q0 79 39.5 138.5
t111.5 92.5t168 33t168.5 -32.5t112 -92.5t39.5 -139q0 -54 -18 -107z" />
    <glyph glyph-name="uni03BC" unicode="&#x3bc;" horiz-adv-x="545" 
d="M460 484v-484h-41v91q-23 -47 -66.5 -72.5t-98.5 -25.5q-83 0 -129 44v-217h-42v664h42v-302q0 -76 31 -112t96 -36q75 0 120.5 47.5t45.5 126.5v276h42z" />
    <glyph glyph-name="pi" unicode="&#x3c0;" horiz-adv-x="560" 
d="M551 34l-5 -40l-43 3q-75 5 -115.5 48.5t-40.5 120.5v282h-200q-3 -273 -68 -448h-47q68 180 73 448h-100v36h511v-36h-127v-283q0 -120 120 -128z" />
    <glyph glyph-name="zero" unicode="0" 
d="M123 83.5q-61 91.5 -61 268.5q0 178 60.5 269.5t177.5 91.5t177.5 -91t60.5 -269q0 -177 -61 -269t-177 -92t-177 91.5zM445.5 112q47.5 78 47.5 241q0 164 -47 241.5t-146 77.5q-98 0 -145.5 -78t-47.5 -241q0 -162 47.5 -240.5t145.5 -78.5t145.5 78z" />
    <glyph glyph-name="one" unicode="1" 
d="M342 38h157v-38h-355v38h157v606l-127 -84l-26 35l153 103v1l10 6h31v-667z" />
    <glyph glyph-name="two" unicode="2" 
d="M532 38v-38h-437v32l254 286q57 65 82 114.5t25 100.5q0 67 -39 103.5t-110 36.5q-56 0 -106.5 -21.5t-100.5 -66.5l-21 35q42 42 103.5 67.5t122.5 25.5q90 0 142 -48t52 -131q0 -61 -28.5 -119.5t-93.5 -130.5l-223 -246h378z" />
    <glyph glyph-name="three" unicode="3" 
d="M480 301q33 -44 33 -111q0 -91 -57.5 -144t-156.5 -53q-66 0 -126.5 24t-104.5 69l21 35q49 -45 100.5 -66.5t110.5 -21.5q81 0 125.5 40t44.5 114q0 75 -47 113.5t-138 38.5h-70v39h55q87 0 136 42.5t49 118.5q0 64 -39 99t-109 35q-55 0 -105.5 -21.5t-101.5 -66.5
l-21 35q43 44 102.5 68.5t124.5 24.5q89 0 141 -47t52 -128q0 -62 -30.5 -109t-83.5 -67q62 -17 95 -61z" />
    <glyph glyph-name="four" unicode="4" 
d="M555 205v-39h-111v-166h-42v166h-316l-1 -2v2h-25v33l349 506h35v-500h111zM113 205h289v418z" />
    <glyph glyph-name="five" unicode="5" 
d="M482.5 374q58.5 -61 58.5 -161q0 -64 -27 -114t-77 -78t-117 -28q-62 0 -122.5 24.5t-104.5 68.5l21 35q97 -88 206 -88q81 0 128.5 49.5t47.5 131.5q0 80 -46.5 130t-122.5 50q-60 0 -103 -24t-75 -76h-38v411h405v-39h-364v-310q29 38 73.5 58.5t97.5 20.5
q101 0 159.5 -61z" />
    <glyph glyph-name="six" unicode="6" horiz-adv-x="599" 
d="M434.5 406.5q50.5 -27.5 78.5 -77.5t28 -116q0 -63 -28 -113.5t-78 -79t-113 -28.5q-123 0 -189.5 88t-66.5 251q0 181 68 281.5t191 100.5q59 0 114.5 -24t100.5 -69l-21 -35q-51 46 -97.5 67t-97.5 21q-101 0 -158 -90.5t-57 -252.5v-40q22 67 78 105.5t131 38.5
q66 0 116.5 -27.5zM448.5 82q48.5 50 48.5 132q0 81 -49 130.5t-129 49.5q-53 0 -95 -23t-65.5 -64t-23.5 -93q0 -82 51.5 -132t134.5 -50q79 0 127.5 50z" />
    <glyph glyph-name="seven" unicode="7" 
d="M78 705h443v-31l-339 -674h-45l336 667h-395v38z" />
    <glyph glyph-name="eight" unicode="8" 
d="M507.5 295.5q35.5 -46.5 35.5 -111.5q0 -90 -62.5 -140.5t-180.5 -50.5t-180.5 50.5t-62.5 140.5q0 65 35.5 112t97.5 65q-54 20 -85.5 64t-31.5 102q0 86 59 136t168 50t168 -50t59 -136q0 -58 -32 -102t-86 -64q63 -19 98.5 -65.5zM164.5 417.5q46.5 -39.5 135.5 -39.5
t135.5 39.5t46.5 109.5q0 69 -46.5 107.5t-135.5 38.5t-135.5 -38.5t-46.5 -107.5q0 -70 46.5 -109.5zM498 185q0 152 -198 152t-198 -152t198 -152t198 152z" />
    <glyph glyph-name="nine" unicode="9" 
d="M468.5 625q66.5 -88 66.5 -251q0 -181 -68 -281.5t-191 -100.5q-59 0 -114.5 24t-100.5 69l21 35q51 -46 97.5 -67t97.5 -21q101 0 158 90.5t57 252.5v38q-22 -66 -78.5 -104t-130.5 -38q-66 0 -116.5 27.5t-78.5 77.5t-28 116q0 63 28 113.5t78 79t113 28.5
q123 0 189.5 -88zM377 334q42 23 65.5 64t23.5 93q0 82 -51 132t-134 50q-80 0 -128 -50t-48 -132q0 -81 48.5 -130.5t128.5 -49.5q53 0 95 23z" />
    <glyph glyph-name="one.ss01" 
d="M317 705h31v-705h-41v644l-127 -84l-27 35l154 103v1z" />
    <glyph glyph-name="one.tosf.ss01" 
d="M317 484h31v-484h-41v423l-127 -84l-27 36l154 102v1z" />
    <glyph glyph-name="zero.tosf" 
d="M176 23q-54 31 -84 88.5t-30 132.5t30.5 132t84.5 88.5t123 31.5q70 0 124 -31t84 -88t30 -132t-30.5 -132.5t-84.5 -89t-123 -31.5q-70 0 -124 31zM439 91q52 58 52 154q0 95 -52 152.5t-139 57.5t-139 -57.5t-52 -152.5q0 -63 24 -111t67.5 -74.5t99.5 -26.5
q87 0 139 58z" />
    <glyph glyph-name="one.tosf" 
d="M342 37h157v-37h-355v37h157v389l-128 -85l-25 34l153 102v1l10 6h31v-447z" />
    <glyph glyph-name="two.tosf" 
d="M501 40v-40h-392v32q179 89 254.5 162t75.5 147q0 57 -36 86t-99 29q-51 0 -96.5 -14.5t-93.5 -46.5l-19 36q44 31 98 48t108 17q85 0 133 -40t48 -114q0 -77 -64.5 -150.5t-211.5 -151.5h295z" />
    <glyph glyph-name="three.tosf" 
d="M463 104.5q33 -42.5 33 -103.5q0 -56 -25.5 -98.5t-72.5 -66t-107 -23.5q-124 0 -216 66l19 35q49 -32 95.5 -46t102.5 -14q73 0 116.5 39t43.5 105q0 68 -45 105t-128 37h-64v40h50q78 0 125.5 41t47.5 109q0 59 -34.5 92.5t-103.5 33.5q-47 0 -92 -15t-94 -46l-19 36
q45 31 97.5 48t103.5 17q88 0 136.5 -45t48.5 -120q0 -57 -30.5 -102t-82.5 -65q62 -17 95 -59.5z" />
    <glyph glyph-name="four.tosf" 
d="M540 40v-40h-101v-180h-44v180h-304l-2 -2v2h-24v33l339 451h35v-444h101zM121 40h274v365z" />
    <glyph glyph-name="five.tosf" 
d="M428 208.5q48 -26.5 73.5 -74.5t25.5 -110t-26.5 -110t-75.5 -74.5t-114 -26.5q-54 0 -107.5 17.5t-95.5 48.5l20 35q88 -60 184 -60q81 0 126 46.5t45 123.5q0 75 -44 122.5t-118 47.5q-112 0 -172 -100h-40v390h393v-40h-350v-288q28 37 72 58t93 21q63 0 111 -26.5z
" />
    <glyph glyph-name="six.tosf" 
d="M431.5 406q49.5 -28 77 -78t27.5 -115q0 -63 -28 -113.5t-77 -79t-109 -28.5q-120 0 -185.5 88.5t-65.5 250.5q0 181 67.5 281.5t189.5 100.5q47 0 98.5 -17t96.5 -49l-20 -35q-94 60 -176 60q-100 0 -156 -89.5t-56 -253.5v-36q22 66 77 103.5t126 37.5q64 0 113.5 -28z
M444 82.5q47 49.5 47 131.5q0 81 -48 130.5t-124 49.5q-51 0 -91.5 -23t-64 -64t-23.5 -93q0 -53 23 -94t64.5 -64t93.5 -23q76 0 123 49.5z" />
    <glyph glyph-name="seven.tosf" 
d="M88 484h423v-30l-329 -635h-45l325 625h-374v40z" />
    <glyph glyph-name="eight.tosf" 
d="M501.5 295.5q36.5 -46.5 36.5 -111.5q0 -88 -64 -139.5t-174 -51.5t-174 51.5t-64 139.5q0 65 36.5 111t100.5 65q-55 19 -88 64.5t-33 102.5q0 85 60.5 135.5t161.5 50.5t161.5 -50.5t60.5 -135.5q0 -57 -32.5 -102t-87.5 -65q63 -18 99.5 -64.5zM170.5 417.5
q47.5 -39.5 129.5 -39.5t129.5 39.5t47.5 109.5q0 69 -47.5 107t-129.5 38t-129.5 -38t-47.5 -107q0 -70 47.5 -109.5zM442.5 73q49.5 39 49.5 112q0 74 -49.5 113t-142.5 39t-142.5 -39t-49.5 -113q0 -73 49.5 -112t142.5 -39t142.5 39z" />
    <glyph glyph-name="nine.tosf" 
d="M464 405q66 -87 66 -243q0 -101 -30.5 -180t-89 -124t-137.5 -45q-47 0 -98 17t-97 49l20 35q49 -31 91.5 -45.5t84.5 -14.5q66 0 114 38.5t73.5 108.5t25.5 163v29q-22 -67 -77.5 -106t-127.5 -39q-63 0 -112.5 28t-77 78t-27.5 116q0 63 28 113.5t77 79.5t109 29
q119 0 185 -87zM373.5 112q40.5 23 64 64t23.5 94t-23 94t-64 64t-93 23q-76 0 -123.5 -50t-47.5 -131t48 -131t124 -50q51 0 91.5 23z" />
    <glyph glyph-name="uni2080" unicode="&#x2080;" horiz-adv-x="380" 
d="M82 50q-39 54 -39 162t38.5 161.5t108.5 53.5t108.5 -53.5t38.5 -161.5t-39 -162t-108 -54t-108 54zM267 77q25 43 25 135q0 91 -25 134t-77 43t-77 -43t-25 -134q0 -92 25 -135t77 -43t77 43z" />
    <glyph glyph-name="uni2081" unicode="&#x2081;" horiz-adv-x="380" 
d="M235 37h73v-37h-187v37h74v335l-68 -46l-22 33l95 64h35v-386z" />
    <glyph glyph-name="uni2082" unicode="&#x2082;" horiz-adv-x="380" 
d="M328 37v-37h-269v32l148 166q32 35 46 62t14 56q0 36 -21 55t-56 19q-27 0 -59 -13.5t-61 -37.5l-27 30q29 26 67 42t79 16q57 0 89 -30.5t32 -79.5q0 -36 -16.5 -70t-52.5 -74l-125 -136h212z" />
    <glyph glyph-name="uni2083" unicode="&#x2083;" horiz-adv-x="380" 
d="M297 181q20 -26 20 -66q0 -56 -37 -87t-96 -31q-41 0 -79.5 16t-66.5 42l27 30q29 -24 60.5 -37t58.5 -13q42 0 67 19.5t25 61.5q0 81 -101 81h-47v36h37q47 0 73.5 21t26.5 62q0 36 -21 55t-55 19q-57 0 -119 -51l-27 30q29 26 67.5 42t78.5 16q56 0 87.5 -30t31.5 -78
q0 -37 -19 -63.5t-48 -38.5q36 -10 56 -36z" />
    <glyph glyph-name="uni2084" unicode="&#x2084;" horiz-adv-x="380" 
d="M348 131v-37h-63v-94h-45v94h-194v33l203 296h36v-292h63zM92 131h148v214z" />
    <glyph glyph-name="uni2085" unicode="&#x2085;" horiz-adv-x="380" 
d="M296 227.5q37 -36.5 37 -95.5q0 -61 -39 -98t-99 -37q-38 0 -76 16t-65 42l27 30q59 -51 113 -51q44 0 71 26t27 71q0 42 -26 69.5t-65 27.5q-31 0 -56 -13t-43 -36h-36v244h251v-36h-206v-155q35 32 89 32q59 0 96 -36.5z" />
    <glyph glyph-name="uni2086" unicode="&#x2086;" horiz-adv-x="380" 
d="M303.5 228q36.5 -37 36.5 -96q0 -60 -38.5 -98t-95.5 -38q-74 0 -116.5 51.5t-42.5 153.5q0 115 45 170.5t116 55.5q38 0 76.5 -16.5t64.5 -41.5l-27 -30q-28 24 -57.5 37.5t-56.5 13.5q-51 0 -84.5 -47t-33.5 -142v-15q12 36 44.5 57.5t74.5 21.5q58 0 94.5 -37z
M270 61.5q26 26.5 26 70.5q0 42 -26 69t-68 27t-69.5 -27t-27.5 -69q0 -44 27 -70.5t70 -26.5q42 0 68 26.5z" />
    <glyph glyph-name="uni2087" unicode="&#x2087;" horiz-adv-x="380" 
d="M52 423h275v-31l-197 -392h-43l194 387h-229v36z" />
    <glyph glyph-name="uni2088" unicode="&#x2088;" horiz-adv-x="380" 
d="M319.5 178q20.5 -28 20.5 -66q0 -53 -39 -84t-111 -31t-111 31t-39 84q0 39 20 66.5t56 38.5q-30 12 -48.5 38t-18.5 60q0 52 37 82t104 30t104 -30t37 -82q0 -34 -18.5 -60.5t-49.5 -37.5q36 -11 56.5 -39zM117.5 254q24.5 -21 72.5 -21q47 0 72 21t25 58t-25 57t-72 20
t-72 -20t-25 -57t24.5 -58zM297 115q0 81 -107 81t-107 -81t107 -81t107 81z" />
    <glyph glyph-name="uni2089" unicode="&#x2089;" horiz-adv-x="380" 
d="M290.5 375.5q42.5 -51.5 42.5 -153.5q0 -115 -45 -170.5t-116 -55.5q-38 0 -76.5 16.5t-64.5 41.5l27 30q28 -24 57.5 -37.5t56.5 -13.5q51 0 84.5 47t33.5 142v15q-12 -36 -44.5 -57.5t-74.5 -21.5q-58 0 -94.5 37t-36.5 96q0 60 38.5 98t95.5 38q74 0 116.5 -51.5z
M247.5 222q27.5 27 27.5 69q0 44 -27 70.5t-70 26.5q-42 0 -68 -26.5t-26 -70.5q0 -42 26 -69t68 -27t69.5 27z" />
    <glyph glyph-name="zero.dnom" horiz-adv-x="380" 
d="M82 50q-39 54 -39 162t38.5 161.5t108.5 53.5t108.5 -53.5t38.5 -161.5t-39 -162t-108 -54t-108 54zM267 77q25 43 25 135q0 91 -25 134t-77 43t-77 -43t-25 -134q0 -92 25 -135t77 -43t77 43z" />
    <glyph glyph-name="one.dnom" horiz-adv-x="380" 
d="M235 37h73v-37h-187v37h74v335l-68 -46l-22 33l95 64h35v-386z" />
    <glyph glyph-name="two.dnom" horiz-adv-x="380" 
d="M328 37v-37h-269v32l148 166q32 35 46 62t14 56q0 36 -21 55t-56 19q-27 0 -59 -13.5t-61 -37.5l-27 30q29 26 67 42t79 16q57 0 89 -30.5t32 -79.5q0 -36 -16.5 -70t-52.5 -74l-125 -136h212z" />
    <glyph glyph-name="three.dnom" horiz-adv-x="380" 
d="M297 181q20 -26 20 -66q0 -56 -37 -87t-96 -31q-41 0 -79.5 16t-66.5 42l27 30q29 -24 60.5 -37t58.5 -13q42 0 67 19.5t25 61.5q0 81 -101 81h-47v36h37q47 0 73.5 21t26.5 62q0 36 -21 55t-55 19q-57 0 -119 -51l-27 30q29 26 67.5 42t78.5 16q56 0 87.5 -30t31.5 -78
q0 -37 -19 -63.5t-48 -38.5q36 -10 56 -36z" />
    <glyph glyph-name="four.dnom" horiz-adv-x="380" 
d="M348 131v-37h-63v-94h-45v94h-194v33l203 296h36v-292h63zM92 131h148v214z" />
    <glyph glyph-name="five.dnom" horiz-adv-x="380" 
d="M296 227.5q37 -36.5 37 -95.5q0 -61 -39 -98t-99 -37q-38 0 -76 16t-65 42l27 30q59 -51 113 -51q44 0 71 26t27 71q0 42 -26 69.5t-65 27.5q-31 0 -56 -13t-43 -36h-36v244h251v-36h-206v-155q35 32 89 32q59 0 96 -36.5z" />
    <glyph glyph-name="six.dnom" horiz-adv-x="380" 
d="M303.5 228q36.5 -37 36.5 -96q0 -60 -38.5 -98t-95.5 -38q-74 0 -116.5 51.5t-42.5 153.5q0 115 45 170.5t116 55.5q38 0 76.5 -16.5t64.5 -41.5l-27 -30q-28 24 -57.5 37.5t-56.5 13.5q-51 0 -84.5 -47t-33.5 -142v-15q12 36 44.5 57.5t74.5 21.5q58 0 94.5 -37z
M270 61.5q26 26.5 26 70.5q0 42 -26 69t-68 27t-69.5 -27t-27.5 -69q0 -44 27 -70.5t70 -26.5q42 0 68 26.5z" />
    <glyph glyph-name="seven.dnom" horiz-adv-x="380" 
d="M52 423h275v-31l-197 -392h-43l194 387h-229v36z" />
    <glyph glyph-name="eight.dnom" horiz-adv-x="380" 
d="M319.5 178q20.5 -28 20.5 -66q0 -53 -39 -84t-111 -31t-111 31t-39 84q0 39 20 66.5t56 38.5q-30 12 -48.5 38t-18.5 60q0 52 37 82t104 30t104 -30t37 -82q0 -34 -18.5 -60.5t-49.5 -37.5q36 -11 56.5 -39zM117.5 254q24.5 -21 72.5 -21q47 0 72 21t25 58t-25 57t-72 20
t-72 -20t-25 -57t24.5 -58zM297 115q0 81 -107 81t-107 -81t107 -81t107 81z" />
    <glyph glyph-name="nine.dnom" horiz-adv-x="380" 
d="M290.5 375.5q42.5 -51.5 42.5 -153.5q0 -115 -45 -170.5t-116 -55.5q-38 0 -76.5 16.5t-64.5 41.5l27 30q28 -24 57.5 -37.5t56.5 -13.5q51 0 84.5 47t33.5 142v15q-12 -36 -44.5 -57.5t-74.5 -21.5q-58 0 -94.5 37t-36.5 96q0 60 38.5 98t95.5 38q74 0 116.5 -51.5z
M247.5 222q27.5 27 27.5 69q0 44 -27 70.5t-70 26.5q-42 0 -68 -26.5t-26 -70.5q0 -42 26 -69t68 -27t69.5 27z" />
    <glyph glyph-name="zero.numr" horiz-adv-x="380" 
d="M82 332q-39 54 -39 162t38.5 161.5t108.5 53.5t108.5 -53.5t38.5 -161.5t-39 -162t-108 -54t-108 54zM267 359q25 43 25 135q0 91 -25 134t-77 43t-77 -43t-25 -134q0 -92 25 -135t77 -43t77 43z" />
    <glyph glyph-name="one.numr" horiz-adv-x="380" 
d="M235 319h73v-37h-187v37h74v335l-68 -46l-22 33l95 64h35v-386z" />
    <glyph glyph-name="two.numr" horiz-adv-x="380" 
d="M328 319v-37h-269v32l148 166q32 35 46 62t14 56q0 36 -21 55t-56 19q-27 0 -59 -13.5t-61 -37.5l-27 30q29 26 67 42t79 16q57 0 89 -30.5t32 -79.5q0 -36 -16.5 -70t-52.5 -74l-125 -136h212z" />
    <glyph glyph-name="three.numr" horiz-adv-x="380" 
d="M297 463q20 -26 20 -66q0 -56 -37 -87t-96 -31q-41 0 -79.5 16t-66.5 42l27 30q29 -24 60.5 -37t58.5 -13q42 0 67 19.5t25 61.5q0 81 -101 81h-47v36h37q47 0 73.5 21t26.5 62q0 36 -21 55t-55 19q-57 0 -119 -51l-27 30q29 26 67.5 42t78.5 16q56 0 87.5 -30t31.5 -78
q0 -37 -19 -63.5t-48 -38.5q36 -10 56 -36z" />
    <glyph glyph-name="four.numr" horiz-adv-x="380" 
d="M348 413v-37h-63v-94h-45v94h-194v33l203 296h36v-292h63zM92 413h148v214z" />
    <glyph glyph-name="five.numr" horiz-adv-x="380" 
d="M296 509.5q37 -36.5 37 -95.5q0 -61 -39 -98t-99 -37q-38 0 -76 16t-65 42l27 30q59 -51 113 -51q44 0 71 26t27 71q0 42 -26 69.5t-65 27.5q-31 0 -56 -13t-43 -36h-36v244h251v-36h-206v-155q35 32 89 32q59 0 96 -36.5z" />
    <glyph glyph-name="six.numr" horiz-adv-x="380" 
d="M303.5 510q36.5 -37 36.5 -96q0 -60 -38.5 -98t-95.5 -38q-74 0 -116.5 51.5t-42.5 153.5q0 115 45 170.5t116 55.5q38 0 76.5 -16.5t64.5 -41.5l-27 -30q-28 24 -57.5 37.5t-56.5 13.5q-51 0 -84.5 -47t-33.5 -142v-15q12 36 44.5 57.5t74.5 21.5q58 0 94.5 -37z
M270 343.5q26 26.5 26 70.5q0 42 -26 69t-68 27t-69.5 -27t-27.5 -69q0 -44 27 -70.5t70 -26.5q42 0 68 26.5z" />
    <glyph glyph-name="seven.numr" horiz-adv-x="380" 
d="M52 705h275v-31l-197 -392h-43l194 387h-229v36z" />
    <glyph glyph-name="eight.numr" horiz-adv-x="380" 
d="M319.5 460q20.5 -28 20.5 -66q0 -53 -39 -84t-111 -31t-111 31t-39 84q0 39 20 66.5t56 38.5q-30 12 -48.5 38t-18.5 60q0 52 37 82t104 30t104 -30t37 -82q0 -34 -18.5 -60.5t-49.5 -37.5q36 -11 56.5 -39zM117.5 536q24.5 -21 72.5 -21q47 0 72 21t25 58t-25 57t-72 20
t-72 -20t-25 -57t24.5 -58zM297 397q0 81 -107 81t-107 -81t107 -81t107 81z" />
    <glyph glyph-name="nine.numr" horiz-adv-x="380" 
d="M290.5 657.5q42.5 -51.5 42.5 -153.5q0 -115 -45 -170.5t-116 -55.5q-38 0 -76.5 16.5t-64.5 41.5l27 30q28 -24 57.5 -37.5t56.5 -13.5q51 0 84.5 47t33.5 142v15q-12 -36 -44.5 -57.5t-74.5 -21.5q-58 0 -94.5 37t-36.5 96q0 60 38.5 98t95.5 38q74 0 116.5 -51.5z
M247.5 504q27.5 27 27.5 69q0 44 -27 70.5t-70 26.5q-42 0 -68 -26.5t-26 -70.5q0 -42 26 -69t68 -27t69.5 27z" />
    <glyph glyph-name="uni2070" unicode="&#x2070;" horiz-adv-x="380" 
d="M82 332q-39 54 -39 162t38.5 161.5t108.5 53.5t108.5 -53.5t38.5 -161.5t-39 -162t-108 -54t-108 54zM267 359q25 43 25 135q0 91 -25 134t-77 43t-77 -43t-25 -134q0 -92 25 -135t77 -43t77 43z" />
    <glyph glyph-name="uni00B9" unicode="&#xb9;" horiz-adv-x="380" 
d="M235 319h73v-37h-187v37h74v335l-68 -46l-22 33l95 64h35v-386z" />
    <glyph glyph-name="uni00B2" unicode="&#xb2;" horiz-adv-x="380" 
d="M328 319v-37h-269v32l148 166q32 35 46 62t14 56q0 36 -21 55t-56 19q-27 0 -59 -13.5t-61 -37.5l-27 30q29 26 67 42t79 16q57 0 89 -30.5t32 -79.5q0 -36 -16.5 -70t-52.5 -74l-125 -136h212z" />
    <glyph glyph-name="uni00B3" unicode="&#xb3;" horiz-adv-x="380" 
d="M297 463q20 -26 20 -66q0 -56 -37 -87t-96 -31q-41 0 -79.5 16t-66.5 42l27 30q29 -24 60.5 -37t58.5 -13q42 0 67 19.5t25 61.5q0 81 -101 81h-47v36h37q47 0 73.5 21t26.5 62q0 36 -21 55t-55 19q-57 0 -119 -51l-27 30q29 26 67.5 42t78.5 16q56 0 87.5 -30t31.5 -78
q0 -37 -19 -63.5t-48 -38.5q36 -10 56 -36z" />
    <glyph glyph-name="uni2074" unicode="&#x2074;" horiz-adv-x="380" 
d="M348 413v-37h-63v-94h-45v94h-194v33l203 296h36v-292h63zM92 413h148v214z" />
    <glyph glyph-name="uni2075" unicode="&#x2075;" horiz-adv-x="380" 
d="M296 509.5q37 -36.5 37 -95.5q0 -61 -39 -98t-99 -37q-38 0 -76 16t-65 42l27 30q59 -51 113 -51q44 0 71 26t27 71q0 42 -26 69.5t-65 27.5q-31 0 -56 -13t-43 -36h-36v244h251v-36h-206v-155q35 32 89 32q59 0 96 -36.5z" />
    <glyph glyph-name="uni2076" unicode="&#x2076;" horiz-adv-x="380" 
d="M303.5 510q36.5 -37 36.5 -96q0 -60 -38.5 -98t-95.5 -38q-74 0 -116.5 51.5t-42.5 153.5q0 115 45 170.5t116 55.5q38 0 76.5 -16.5t64.5 -41.5l-27 -30q-28 24 -57.5 37.5t-56.5 13.5q-51 0 -84.5 -47t-33.5 -142v-15q12 36 44.5 57.5t74.5 21.5q58 0 94.5 -37z
M270 343.5q26 26.5 26 70.5q0 42 -26 69t-68 27t-69.5 -27t-27.5 -69q0 -44 27 -70.5t70 -26.5q42 0 68 26.5z" />
    <glyph glyph-name="uni2077" unicode="&#x2077;" horiz-adv-x="380" 
d="M52 705h275v-31l-197 -392h-43l194 387h-229v36z" />
    <glyph glyph-name="uni2078" unicode="&#x2078;" horiz-adv-x="380" 
d="M319.5 460q20.5 -28 20.5 -66q0 -53 -39 -84t-111 -31t-111 31t-39 84q0 39 20 66.5t56 38.5q-30 12 -48.5 38t-18.5 60q0 52 37 82t104 30t104 -30t37 -82q0 -34 -18.5 -60.5t-49.5 -37.5q36 -11 56.5 -39zM117.5 536q24.5 -21 72.5 -21q47 0 72 21t25 58t-25 57t-72 20
t-72 -20t-25 -57t24.5 -58zM297 397q0 81 -107 81t-107 -81t107 -81t107 81z" />
    <glyph glyph-name="uni2079" unicode="&#x2079;" horiz-adv-x="380" 
d="M290.5 657.5q42.5 -51.5 42.5 -153.5q0 -115 -45 -170.5t-116 -55.5q-38 0 -76.5 16.5t-64.5 41.5l27 30q28 -24 57.5 -37.5t56.5 -13.5q51 0 84.5 47t33.5 142v15q-12 -36 -44.5 -57.5t-74.5 -21.5q-58 0 -94.5 37t-36.5 96q0 60 38.5 98t95.5 38q74 0 116.5 -51.5z
M247.5 504q27.5 27 27.5 69q0 44 -27 70.5t-70 26.5q-42 0 -68 -26.5t-26 -70.5q0 -42 26 -69t68 -27t69.5 27z" />
    <glyph glyph-name="fraction" unicode="&#x2044;" horiz-adv-x="158" 
d="M-112 -22l-38 21l421 728l37 -21z" />
    <glyph glyph-name="onehalf" unicode="&#xbd;" horiz-adv-x="918" 
d="M235 319h73v-37h-187v37h74v335l-68 -46l-22 33l95 64h35v-386zM268 -22l-38 21l421 728l37 -21zM866 37v-37h-269v32l148 166q32 35 46 62t14 56q0 36 -21 55t-56 19q-27 0 -59 -13.5t-61 -37.5l-27 30q29 26 67 42t79 16q57 0 89 -30.5t32 -79.5q0 -36 -16.5 -70
t-52.5 -74l-125 -136h212z" />
    <glyph glyph-name="onequarter" unicode="&#xbc;" horiz-adv-x="918" 
d="M235 319h73v-37h-187v37h74v335l-68 -46l-22 33l95 64h35v-386zM268 -22l-38 21l421 728l37 -21zM886 131v-37h-63v-94h-45v94h-194v33l203 296h36v-292h63zM630 131h148v214z" />
    <glyph glyph-name="threequarters" unicode="&#xbe;" horiz-adv-x="918" 
d="M297 463q20 -26 20 -66q0 -56 -37 -87t-96 -31q-41 0 -79.5 16t-66.5 42l27 30q29 -24 60.5 -37t58.5 -13q42 0 67 19.5t25 61.5q0 81 -101 81h-47v36h37q47 0 73.5 21t26.5 62q0 36 -21 55t-55 19q-57 0 -119 -51l-27 30q29 26 67.5 42t78.5 16q56 0 87.5 -30t31.5 -78
q0 -37 -19 -63.5t-48 -38.5q36 -10 56 -36zM268 -22l-38 21l421 728l37 -21zM886 131v-37h-63v-94h-45v94h-194v33l203 296h36v-292h63zM630 131h148v214z" />
    <glyph glyph-name="asterisk" unicode="*" horiz-adv-x="448" 
d="M412 559v-39l-161 3l83 -136l-33 -19l-77 140l-78 -141l-33 20l84 136l-161 -3v39l161 -3l-84 137l33 19l78 -141l77 141l33 -19l-83 -137z" />
    <glyph glyph-name="backslash" unicode="\" horiz-adv-x="256" 
d="M234 -58l-253 789l41 15l253 -789z" />
    <glyph glyph-name="periodcentered" unicode="&#xb7;" horiz-adv-x="212" 
d="M71 300h69v-70h-69v70z" />
    <glyph glyph-name="bullet" unicode="&#x2022;" horiz-adv-x="524" 
d="M172 111.5q-42 23.5 -66.5 64t-24.5 89.5q0 46 23.5 87t65 66t92.5 25q48 0 89.5 -23.5t66.5 -64t25 -90.5q0 -48 -24.5 -88.5t-66 -64.5t-90.5 -24q-48 0 -90 23.5z" />
    <glyph glyph-name="colon" unicode=":" horiz-adv-x="212" 
d="M71 484h69v-70h-69v70zM71 70h69v-70h-69v70z" />
    <glyph glyph-name="comma" unicode="," horiz-adv-x="212" 
d="M140 70v-55q0 -34 -10 -62t-34 -51l-26 20q19 21 25.5 39t7.5 39h-32v70h69z" />
    <glyph glyph-name="ellipsis" unicode="&#x2026;" horiz-adv-x="635" 
d="M71 70h69v-70h-69v70zM283 70h69v-70h-69v70zM495 70h69v-70h-69v70z" />
    <glyph glyph-name="exclam" unicode="!" horiz-adv-x="212" 
d="M92 162l-13 543h53l-13 -543h-27zM71 70h69v-70h-69v70z" />
    <glyph glyph-name="exclamdown" unicode="&#xa1;" horiz-adv-x="212" 
d="M71 414v70h69v-70h-69zM92 323h27l13 -503h-53z" />
    <glyph glyph-name="numbersign" unicode="#" 
d="M573 482h-111l-49 -251h141v-40h-149l-37 -191h-42l37 191h-188l-37 -191h-43l37 191h-105v40h113l49 251h-143v40h150l36 183h42l-35 -183h188l35 183h43l-36 -183h104v-40zM371 231l48 251h-188l-48 -251h188z" />
    <glyph glyph-name="period" unicode="." horiz-adv-x="212" 
d="M71 70h69v-70h-69v70z" />
    <glyph glyph-name="question" unicode="?" horiz-adv-x="429" 
d="M183 173q0 47 13 86.5t31.5 69t49.5 70.5q38 49 57 84.5t19 79.5q0 50 -35 79.5t-96 29.5q-102 0 -200 -87l-21 35q43 42 102.5 67t117.5 25q80 0 128 -41t48 -108q0 -53 -21.5 -92.5t-66.5 -95.5q-45 -55 -69.5 -99.5t-29.5 -103.5l-1 -10h-26v11zM162 0v70h68v-70h-68z
" />
    <glyph glyph-name="questiondown" unicode="&#xbf;" horiz-adv-x="429" 
d="M198 414v70h69v-70h-69zM80 -146.5q-49 40.5 -49 105.5q0 37 12 66.5t29 51.5t47 52q31 31 49.5 54.5t33 56t17.5 73.5v9h27v-11q0 -46 -13 -81.5t-31.5 -61t-49.5 -58.5q-39 -43 -58 -75t-19 -76q0 -47 36.5 -76.5t94.5 -29.5q105 0 201 87l20 -35q-42 -42 -101.5 -67
t-117.5 -25q-79 0 -128 40.5z" />
    <glyph glyph-name="quotedbl" unicode="&#x22;" horiz-adv-x="395" 
d="M87 440l-13 265h52l-11 -265h-28zM280 440l-13 265h52l-11 -265h-28z" />
    <glyph glyph-name="quotesingle" unicode="'" horiz-adv-x="202" 
d="M87 440l-13 265h52l-11 -265h-28z" />
    <glyph glyph-name="semicolon" unicode=";" horiz-adv-x="212" 
d="M71 484h69v-70h-69v70zM71 70h69v-55q0 -34 -10 -62t-34 -51l-26 20q19 21 25.5 39t7.5 39h-32v70z" />
    <glyph glyph-name="slash" unicode="/" horiz-adv-x="256" 
d="M22 -58l-41 15l253 789l41 -15z" />
    <glyph glyph-name="underscore" unicode="_" horiz-adv-x="500" 
d="M4 -33v33h492v-33h-492z" />
    <glyph glyph-name="periodcentered.loclCAT" horiz-adv-x="300" 
d="M116 289h69v-68h-69v68z" />
    <glyph glyph-name="braceleft" unicode="{" horiz-adv-x="318" 
d="M171.5 293.5q-19.5 -24.5 -48.5 -30.5q29 -6 48.5 -30.5t19.5 -67.5v-262q0 -46 45 -46h78v-37h-83q-82 0 -82 85v257q0 42 -17 61.5t-59 20.5l-19 1v36l19 1q42 2 59 21.5t17 60.5v256q0 85 82 85h83v-37h-78q-45 0 -45 -46v-261q0 -43 -19.5 -67.5z" />
    <glyph glyph-name="braceright" unicode="}" horiz-adv-x="318" 
d="M264 281v-36l-19 -1q-42 -1 -59 -20.5t-17 -61.5v-257q0 -41 -21 -63t-61 -22h-83v37h78q45 0 45 46v262q0 43 19.5 67.5t48.5 30.5q-29 6 -48.5 30.5t-19.5 67.5v261q0 46 -45 46h-78v37h83q40 0 61 -22t21 -63v-256q0 -42 17 -61t59 -21z" />
    <glyph glyph-name="bracketleft" unicode="[" horiz-adv-x="281" 
d="M112 -180v885h165v-37h-123v-811h123v-37h-165z" />
    <glyph glyph-name="bracketright" unicode="]" horiz-adv-x="281" 
d="M169 -180h-165v37h123v811h-123v37h165v-885z" />
    <glyph glyph-name="parenleft" unicode="(" horiz-adv-x="281" 
d="M106 263q0 115 26 227t81 226l33 -12q-98 -218 -98 -441t98 -441l-33 -12q-107 221 -107 453z" />
    <glyph glyph-name="parenright" unicode=")" horiz-adv-x="281" 
d="M35 -178q97 219 97 441t-97 441l33 12q55 -114 81 -226t26 -227q0 -232 -107 -453z" />
    <glyph glyph-name="emdash" unicode="&#x2014;" horiz-adv-x="1000" 
d="M0 249v33h1000v-33h-1000z" />
    <glyph glyph-name="endash" unicode="&#x2013;" horiz-adv-x="500" 
d="M0 249v33h500v-33h-500z" />
    <glyph glyph-name="figuredash" unicode="&#x2012;" 
d="M76 249v33h448v-33h-448z" />
    <glyph glyph-name="uni2015" unicode="&#x2015;" horiz-adv-x="1000" 
d="M0 249v33h1000v-33h-1000z" />
    <glyph glyph-name="hyphen" unicode="-" horiz-adv-x="416" 
d="M76 246v38h264v-38h-264z" />
    <glyph glyph-name="uni2010" unicode="&#x2010;" horiz-adv-x="416" 
d="M76 246v38h264v-38h-264z" />
    <glyph glyph-name="uni00AD" unicode="&#xad;" horiz-adv-x="416" 
d="M76 246v38h264v-38h-264z" />
    <glyph glyph-name="guillemotleft" unicode="&#xab;" horiz-adv-x="394" 
d="M151 95l-91 159v22l92 159l33 -12l-81 -158l81 -159zM309 95l-91 159v22l92 159l33 -12l-81 -158l81 -159z" />
    <glyph glyph-name="guillemotright" unicode="&#xbb;" horiz-adv-x="394" 
d="M84 95l-34 11l81 159l-81 158l34 12l92 -159v-22zM242 95l-34 11l81 159l-81 158l34 12l92 -159v-22z" />
    <glyph glyph-name="guilsinglleft" unicode="&#x2039;" horiz-adv-x="236" 
d="M151 95l-91 159v22l92 159l33 -12l-81 -158l81 -159z" />
    <glyph glyph-name="guilsinglright" unicode="&#x203a;" horiz-adv-x="236" 
d="M84 95l-34 11l81 159l-81 158l34 12l92 -159v-22z" />
    <glyph glyph-name="quotedblbase" unicode="&#x201e;" horiz-adv-x="355" 
d="M140 70v-55q0 -34 -10 -62t-34 -51l-26 20q19 21 25.5 39t7.5 39h-32v70h69zM283 70v-55q0 -34 -10 -62t-34 -51l-26 20q19 21 25.5 39t7.5 39h-32v70h69z" />
    <glyph glyph-name="quotedblleft" unicode="&#x201c;" horiz-adv-x="355" 
d="M116 650.5q-7 -18.5 -8 -38.5h32v-70h-69v54q0 34 10 62t34 52l27 -20q-19 -21 -26 -39.5zM259 650.5q-7 -18.5 -8 -38.5h32v-70h-69v54q0 34 10 62t34 52l27 -20q-19 -21 -26 -39.5z" />
    <glyph glyph-name="quotedblright" unicode="&#x201d;" horiz-adv-x="355" 
d="M140 705v-55q0 -34 -10 -62t-34 -51l-26 20q19 21 25.5 39t7.5 39h-32v70h69zM283 705v-55q0 -34 -10 -62t-34 -51l-26 20q19 21 25.5 39t7.5 39h-32v70h69z" />
    <glyph glyph-name="quoteleft" unicode="&#x2018;" horiz-adv-x="212" 
d="M116 650.5q-7 -18.5 -8 -38.5h32v-70h-69v54q0 34 10 62t34 52l27 -20q-19 -21 -26 -39.5z" />
    <glyph glyph-name="quoteright" unicode="&#x2019;" horiz-adv-x="212" 
d="M140 705v-55q0 -34 -10 -62t-34 -51l-26 20q19 21 25.5 39t7.5 39h-32v70h69z" />
    <glyph glyph-name="quotesinglbase" unicode="&#x201a;" horiz-adv-x="212" 
d="M140 70v-55q0 -34 -10 -62t-34 -51l-26 20q19 21 25.5 39t7.5 39h-32v70h69z" />
    <glyph glyph-name="uni2007" unicode="&#x2007;" 
 />
    <glyph glyph-name="uni200A" unicode="&#x200a;" horiz-adv-x="100" 
 />
    <glyph glyph-name="uni2008" unicode="&#x2008;" horiz-adv-x="212" 
 />
    <glyph glyph-name="uni00A0" unicode="&#xa0;" horiz-adv-x="246" 
 />
    <glyph glyph-name="uni2009" unicode="&#x2009;" horiz-adv-x="200" 
 />
    <glyph glyph-name="uni200B" unicode="&#x200b;" horiz-adv-x="0" 
 />
    <glyph glyph-name="uni20B5" unicode="&#x20b5;" 
d="M453.5 56q50.5 24 88.5 66l21 -35q-38 -39 -90 -64.5t-100 -29.5v-108h-41v108q-122 9 -191 104t-69 256q0 160 69 255t191 104v108h42v-108q48 -4 100 -29.5t89 -64.5l-21 -35q-38 42 -88.5 66t-97.5 24q-113 0 -177.5 -84.5t-64.5 -235.5t64.5 -236t177.5 -85
q47 0 97.5 24z" />
    <glyph glyph-name="cent" unicode="&#xa2;" 
d="M394.5 48q34.5 14 73.5 46l20 -35q-28 -28 -67.5 -45.5t-83.5 -19.5v-109h-42v109q-58 6 -102.5 39t-69 87t-24.5 123t24.5 123.5t69 88t102.5 39.5v110h42v-108q45 -3 85 -20t66 -45l-20 -36q-39 32 -73 46.5t-72 14.5q-83 0 -131 -57.5t-48 -156.5q0 -97 47.5 -152.5
t130.5 -55.5q38 0 72.5 14z" />
    <glyph glyph-name="colonmonetary" unicode="&#x20a1;" 
d="M178.5 588.5q-64.5 -84.5 -64.5 -235.5t64.5 -236t177.5 -85q47 0 97.5 24t88.5 66l21 -35q-41 -43 -98 -69t-108 -26q-47 0 -86 12l-51 -128l-39 14l51 129q-48 25 -80 64l-61 -154l-38 16l71 179q-52 90 -52 229q0 112 34 193t98.5 124t152.5 43h1l43 107h44l-45 -112
q46 -9 92 -35l58 147h45l-68 -170q17 -13 36 -32l-21 -35q-38 42 -88.5 66t-97.5 24q-113 0 -177.5 -84.5z" />
    <glyph glyph-name="currency" unicode="&#xa4;" 
d="M526.5 160.5q-14.5 -40.5 -40.5 -72.5l53 -54l-36 -36l-52 54q-64 -55 -150 -55q-87 0 -153 57l-54 -56l-35 36l55 56q-25 32 -39 72t-14 83t13.5 82.5t38.5 71.5l-54 57l35 36l54 -57q31 28 70.5 43t82.5 15q86 0 150 -55l52 54l36 -36l-53 -54q26 -32 40.5 -72.5
t14.5 -84.5t-14.5 -84.5zM399 64q45 28 71 76t26 105t-26 105t-71 76t-99 28q-53 0 -98 -28.5t-71.5 -76t-26.5 -104.5t26.5 -105t71.5 -76t98 -28q54 0 99 28z" />
    <glyph glyph-name="dollar" unicode="$" 
d="M480.5 53q-57.5 -52 -149.5 -60v-108h-42v107q-68 2 -127.5 27t-105.5 71l21 36q54 -49 107.5 -71t119.5 -22q89 0 139.5 40t50.5 111q0 43 -25 68.5t-62 39t-102 29.5q-76 19 -122 37.5t-78.5 56.5t-32.5 102q0 55 27.5 98.5t77 69t113.5 28.5v107h41v-108
q59 -5 111.5 -29t91.5 -65l-21 -36q-83 90 -208 90q-89 0 -139.5 -41.5t-50.5 -114.5q0 -49 27 -78.5t67 -44t108 -31.5q74 -18 117 -35t73.5 -51.5t30.5 -92.5q0 -78 -57.5 -130z" />
    <glyph glyph-name="dong" unicode="&#x20ab;" 
d="M558 566h-76v-566h-43v98q-22 -51 -63 -77t-97 -26q-57 0 -104 29.5t-74.5 86.5t-27.5 136q0 78 27.5 134t74 84.5t104.5 28.5q57 0 98.5 -26.5t62.5 -77.5v176h-158v39h158v100h42v-100h76v-39zM399 91q40 55 40 154q0 98 -40 153t-119 55q-75 0 -118.5 -54t-43.5 -152
q0 -99 43.5 -155t117.5 -56q80 0 120 55zM87 -130v39h395v-39h-395z" />
    <glyph glyph-name="Euro" unicode="&#x20ac;" 
d="M478.5 56q50.5 24 85.5 66l21 -35q-38 -43 -94.5 -69t-111.5 -26q-104 0 -168.5 68.5t-81.5 197.5h-115v40h111q-2 36 -2 55t2 55h-111v40h115q17 128 81.5 196.5t168.5 68.5q122 0 206 -95l-21 -35q-35 42 -85.5 66t-101.5 24q-85 0 -137.5 -57.5t-67.5 -167.5h188v-40
h-192q-2 -36 -2 -55q0 -21 2 -55h192v-40h-188q14 -112 66 -169t139 -57q51 0 101.5 24z" />
    <glyph glyph-name="florin" unicode="&#x192;" 
d="M549 709v-37h-38q-53 0 -83.5 -26t-43.5 -88l-16 -74h132v-41h-141l-102 -481q-15 -72 -56.5 -109.5t-112.5 -37.5h-39v37h39q52 0 83 26t44 88l102 477h-130v41h138l17 78q16 72 56.5 109.5t112.5 37.5h38z" />
    <glyph glyph-name="franc" unicode="&#x20a3;" 
d="M580 491v-39h-12q-74 0 -111.5 -48.5t-37.5 -115.5v-288h-42v339h-245v-339h-42v705h407v-38h-365v-290h245v107h43v-84q21 44 59.5 67.5t82.5 23.5h18z" />
    <glyph glyph-name="uni20B2" unicode="&#x20b2;" 
d="M340 355h204v-312q-29 -20 -80.5 -34.5t-101.5 -16.5v-107h-41v108q-122 9 -191 104t-69 256t68.5 255.5t191.5 103.5v108h41v-108q49 -4 100.5 -29t89.5 -65l-21 -35q-38 41 -89 65.5t-98 24.5q-113 0 -177 -84.5t-64 -235.5q0 -150 64 -235.5t178 -85.5q35 0 77.5 9.5
t82.5 26.5v247h-165v40z" />
    <glyph glyph-name="uni20AD" unicode="&#x20ad;" 
d="M536 333h-317l349 -333h-55l-343 324v-324h-43v333h-113v41h113v331h43v-323l343 323h55l-353 -331h321v-41z" />
    <glyph glyph-name="lira" unicode="&#x20a4;" 
d="M205 38h350v-38h-504v38h112v220h-112v40h112v110h-112v40h112v77q0 88 47.5 138t131.5 50q59 0 115 -24.5t100 -70.5l-21 -36q-40 44 -91 67.5t-105 23.5q-65 0 -100 -39.5t-35 -112.5v-73h191v-40h-191v-110h191v-40h-191v-220z" />
    <glyph glyph-name="uni20BA" unicode="&#x20ba;" 
d="M550 86q-93 -93 -241 -93q-68 0 -127 13v365l-113 -62v47l113 63v116l-113 -62v48l113 62v122h41v-100l196 108v-47l-196 -108v-117l196 109v-48l-196 -108v-351q45 -10 83 -10q69 0 123.5 20.5t99.5 67.5z" />
    <glyph glyph-name="uni20BC" unicode="&#x20bc;" 
d="M435 639q45 -65 69.5 -219t24.5 -420h-42q0 249 -20.5 394t-56.5 206.5t-89 69.5v-311h-42v310q-52 -10 -87 -72.5t-55 -207t-20 -389.5h-42q0 265 24 418.5t68.5 219t111.5 73.5v109h42v-109q69 -7 114 -72z" />
    <glyph glyph-name="uni20A6" unicode="&#x20a6;" 
d="M586 407h-101v-109h101v-40h-101v-258h-37l-292 607v-607h-41v258h-101v40h101v109h-101v41h101v257h38l291 -604v604h41v-257h101v-41z" />
    <glyph glyph-name="peseta" unicode="&#x20a7;" horiz-adv-x="1200" 
d="M636.5 66q30.5 -33 89.5 -33q21 0 42 3l-2 -39q-22 -3 -45 -3q-76 0 -116.5 43.5t-40.5 116.5v294h-81q-11 -88 -70 -135.5t-158 -47.5h-115v-265h-42v705h157q113 0 171.5 -56t58.5 -163v-2h79v151h42v-151h149v-35l-149 -1v-285q0 -64 30.5 -97zM441 486
q0 91 -46.5 135.5t-142.5 44.5h-110v-361h110q189 0 189 181zM1064 230.5q37 -17.5 53 -42t16 -62.5q0 -60 -50 -96.5t-132 -36.5q-57 0 -104 17t-79 49l20 35q43 -33 79 -46t83 -14q65 0 101 24t36 68q0 38 -29 58.5t-108 37.5q-89 21 -127 51.5t-38 82.5q0 64 49 102
t130 38q47 0 91 -17.5t70 -47.5l-19 -36q-38 32 -72 46t-73 14q-59 0 -94 -26t-35 -70q0 -26 11.5 -42.5t38 -28.5t75.5 -24q70 -16 107 -33.5z" />
    <glyph glyph-name="uni20B1" unicode="&#x20b1;" 
d="M586 540h-88q4 -23 4 -54q0 -27 -5 -55h89v-41h-100q-24 -61 -79 -93t-136 -32h-114v-265h-42v390h-101v41h101v109h-101v40h101v125h156q85 0 139.5 -31.5t76.5 -93.5h99v-40zM457 486q0 91 -46 135.5t-142 44.5h-111v-361h111q188 0 188 181z" />
    <glyph glyph-name="uni20BD" unicode="&#x20bd;" 
d="M157 304v-109h189v-41h-189v-154h-42v154h-101v41h101v109h-101v40h101v361h222q109 0 169 -52.5t60 -149.5q0 -60 -28.5 -105t-80.5 -69.5t-120 -24.5h-180zM158 344h180q90 0 137 41t47 120t-47 119.5t-138 40.5h-179v-321z" />
    <glyph glyph-name="uni20B9" unicode="&#x20b9;" 
d="M578 665h-192q65 -35 79 -110h113v-40h-109v-5q0 -82 -52.5 -132.5t-140.5 -58.5q24 -9 43.5 -28t39.5 -50l157 -241h-48l-147 226q-32 49 -65 68t-91 19h-144v40h220q88 0 135.5 36.5t47.5 120.5v5h-403v40h399q-13 58 -59 84t-120 26h-220v40h557v-40z" />
    <glyph glyph-name="sterling" unicode="&#xa3;" 
d="M205 38h350v-38h-504v38h112v295h-112v40h112v152q0 88 47.5 138t131.5 50q59 0 115 -24.5t100 -70.5l-21 -36q-40 44 -91 67.5t-105 23.5q-65 0 -100 -39.5t-35 -112.5v-148h191v-40h-191v-295z" />
    </font>
</defs>
</svg>
