<?xml version="1.0" standalone="no"?>
<!DOCTYPE svg PUBLIC "-//W3C//DTD SVG 1.1//EN" "http://www.w3.org/Graphics/SVG/1.1/DTD/svg11.dtd" >
<svg xmlns="http://www.w3.org/2000/svg" xmlns:xlink="http://www.w3.org/1999/xlink" version="1.1">
<metadata>
Created by FontForge 20190801 at Mon Oct  1 15:16:10 2012
 By root
Copyright (c) 2011-2012, Julieta Ulanovsky (julieta.ulanovsky@gmail.com), with Reserved Font Names 'Montserrat'
</metadata>
<defs>
<font id="Montserrat-Bold" horiz-adv-x="292" >
  <font-face 
    font-family="Montserrat"
    font-weight="700"
    font-stretch="normal"
    units-per-em="1000"
    panose-1="2 0 5 5 0 0 0 2 0 4"
    ascent="800"
    descent="-200"
    x-height="538"
    cap-height="699"
    bbox="-111 -250 1083 948"
    underline-thickness="50"
    underline-position="-100"
    unicode-range="U+000D-FB02"
  />
<missing-glyph horiz-adv-x="264" 
 />
    <glyph glyph-name=".notdef" horiz-adv-x="264" 
 />
    <glyph glyph-name=".null" horiz-adv-x="0" 
 />
    <glyph glyph-name="nonmarkingreturn" horiz-adv-x="333" 
 />
    <glyph glyph-name="NULL" horiz-adv-x="0" 
 />
    <glyph glyph-name="NULL" horiz-adv-x="0" 
 />
    <glyph glyph-name="CR" unicode="&#xd;" horiz-adv-x="264" 
 />
    <glyph glyph-name="space" unicode=" " horiz-adv-x="264" 
 />
    <glyph glyph-name="exclam" unicode="!" horiz-adv-x="315" 
d="M69 699h177v-124l-30 -360h-118l-29 360v124zM69 80q0 37 25.5 62.5t62.5 25.5t62.5 -25.5t25.5 -62.5t-25.5 -62.5t-62.5 -25.5t-62.5 25.5t-25.5 62.5z" />
    <glyph glyph-name="quotedbl" unicode="&#x22;" horiz-adv-x="433" 
d="M71 431v268h119v-268h-119zM243 431v268h119v-268h-119z" />
    <glyph glyph-name="numbersign" unicode="#" horiz-adv-x="747" 
d="M677 415h-101l-21 -125h115l-27 -138h-111l-26 -152h-150l26 152h-91l-26 -152h-151l26 152h-96l27 138h93l21 125h-107l27 138h103l27 162h151l-27 -162h90l27 162h152l-29 -162h105zM427 415h-91l-22 -125h91q13 80 22 125z" />
    <glyph glyph-name="dollar" unicode="$" horiz-adv-x="635" 
d="M270 -69v73q-127 20 -234 115l93 113q78 -68 141 -87v149q-105 27 -154 72.5t-49 131t56 141t147 66.5v49h106v-51q100 -14 199 -83l-82 -118q-63 45 -117 60v-144q108 -28 159.5 -75t51.5 -133t-57.5 -142t-153.5 -67v-70h-106zM427 202q0 21 -11 35t-40 26v-123
q51 16 51 62zM270 566q-43 -15 -43 -55t43 -61v116z" />
    <glyph glyph-name="percent" unicode="%" horiz-adv-x="819" 
d="M743 699l-501 -699h-172l502 699h171zM605 83q18 0 30 13.5t12 35.5t-12 36.5t-29.5 14.5t-29.5 -14.5t-12 -36.5t11.5 -35.5t29.5 -13.5zM711 32.5q-42 -40.5 -105.5 -40.5t-105.5 41t-42 99.5t42 99.5t105.5 41t105.5 -41t42 -100t-42 -99.5zM211 492q18 0 30 13.5
t12 35.5t-12 36.5t-29.5 14.5t-29.5 -14.5t-12 -36.5t11.5 -35.5t29.5 -13.5zM317 441.5q-42 -40.5 -105.5 -40.5t-105.5 41t-42 99.5t42 99.5t105.5 41t105.5 -41t42 -100t-42 -99.5z" />
    <glyph glyph-name="ampersand" unicode="&#x26;" horiz-adv-x="700" 
d="M494 60q-84 -68 -194.5 -68t-181.5 56.5t-71 154.5q0 110 147 195q-33 40 -48 70.5t-15 71.5q0 85 61.5 130t145.5 45t143.5 -43.5t59.5 -121.5q0 -98 -143 -182q56 -70 84 -101q25 46 38 97l117 -84q-23 -63 -56 -117l99 -98l-99 -94zM225 140q29 -23 75 -23t99 44
q-73 77 -126 140q-77 -48 -77 -103q0 -35 29 -58zM298.5 581.5q-17.5 -15.5 -17.5 -42t40 -76.5q75 40 75 75q0 29 -18 44t-40 15t-39.5 -15.5z" />
    <glyph glyph-name="quotesingle" unicode="'" horiz-adv-x="261" 
d="M71 431v268h119v-268h-119z" />
    <glyph glyph-name="parenleft" unicode="(" horiz-adv-x="362" 
d="M235.5 544.5q-41.5 -123.5 -41.5 -231t41.5 -231.5t101.5 -209h-162q-49 69 -89.5 194.5t-40.5 245.5t40.5 246t89.5 195h162q-60 -86 -101.5 -209.5z" />
    <glyph glyph-name="parenright" unicode=")" horiz-adv-x="362" 
d="M126.5 82q41.5 124 41.5 231.5t-41.5 231t-101.5 209.5h162q49 -69 89.5 -195t40.5 -246t-40.5 -245.5t-89.5 -194.5h-162q60 85 101.5 209z" />
    <glyph glyph-name="asterisk" unicode="*" horiz-adv-x="456" 
d="M278 447l6 -84h-112l6 84l-71 -49l-51 91l84 42l-85 42l52 89l71 -47l-6 84h112l-6 -84l71 47l52 -89l-85 -42l84 -42l-51 -91z" />
    <glyph glyph-name="plus" unicode="+" horiz-adv-x="584" 
d="M223 109v180h-175v123h175v180h138v-180h175v-123h-175v-180h-138z" />
    <glyph glyph-name="comma" unicode="," horiz-adv-x="297" 
d="M91 12q-35 25 -35 65t27 65.5t65 25.5t65.5 -25t27.5 -58.5t-29 -80.5l-60 -103h-99z" />
    <glyph glyph-name="hyphen" unicode="-" horiz-adv-x="490" 
d="M67 234v133h356v-133h-356z" />
    <glyph glyph-name="period" unicode="." horiz-adv-x="288" 
d="M56 80q0 37 25.5 62.5t62.5 25.5t62.5 -25.5t25.5 -62.5t-25.5 -62.5t-62.5 -25.5t-62.5 25.5t-25.5 62.5z" />
    <glyph glyph-name="slash" unicode="/" horiz-adv-x="614" 
d="M446 805h142l-420 -917h-141z" />
    <glyph glyph-name="zero" unicode="0" horiz-adv-x="690" 
d="M209 353q0 -105 33 -169t103 -64t103 64t33 169t-33 169t-103 64t-103 -64t-33 -169zM128 90.5q-72 98.5 -72 263t72 263t217 98.5t217 -98.5t72 -263t-72 -263t-217 -98.5t-217 98.5z" />
    <glyph glyph-name="one" unicode="1" horiz-adv-x="403" 
d="M31 699h283v-699h-150v566h-133v133z" />
    <glyph glyph-name="two" unicode="2" horiz-adv-x="605" 
d="M351.5 426.5q26.5 37.5 26.5 72.5t-23 58.5t-59 23.5q-66 0 -125 -94l-125 74q49 76 107.5 115t149 39t159 -57.5t68.5 -156.5q0 -54 -27.5 -103.5t-101.5 -126.5l-126 -131h276v-140h-493v116l205 210q62 63 88.5 100.5z" />
    <glyph glyph-name="three" unicode="3" horiz-adv-x="591" 
d="M75 566v133h428v-108l-143 -163q84 -14 130 -70.5t46 -130.5q0 -110 -74.5 -172.5t-190.5 -62.5t-235 82l64 124q99 -70 177 -70q47 0 77.5 23t30.5 66.5t-35 69t-97 25.5q-33 0 -93 -19v115l134 158h-219z" />
    <glyph glyph-name="four" unicode="4" horiz-adv-x="588" 
d="M317 302v122h150v-122h79v-135h-79v-167h-150v167h-281v119l249 413h170l-237 -397h99z" />
    <glyph glyph-name="five" unicode="5" horiz-adv-x="596" 
d="M506 699v-135h-276v-117q31 9 71 9q101 0 174 -61t73 -164.5t-75.5 -171t-186.5 -67.5q-142 0 -237 105l82 114q9 -9 24 -22t55 -34.5t80 -21.5t71 24t31 71t-33.5 72.5t-86.5 25.5t-123 -38l-65 70v341h422z" />
    <glyph glyph-name="six" unicode="6" horiz-adv-x="630" 
d="M354 581q-65 0 -100.5 -43.5t-43.5 -118.5q65 42 138 42q98 0 163.5 -64t65.5 -170.5t-70.5 -170.5t-177.5 -64q-74 0 -128.5 28.5t-84.5 79.5q-60 99 -60 248q0 96 23.5 168.5t64.5 114.5q80 84 198 84q49 0 93.5 -14.5t68.5 -29.5t53 -38l-74 -110q-6 6 -17.5 16
t-45.5 26t-66 16zM255.5 301.5q-31.5 -27.5 -31.5 -71.5t30 -75.5t75 -31.5t75 28t30 72.5t-27 75t-73.5 30.5t-78 -27.5z" />
    <glyph glyph-name="seven" unicode="7" horiz-adv-x="579" 
d="M47 475v224h505v-118l-283 -581h-170l270 565h-176v-90h-146z" />
    <glyph glyph-name="eight" unicode="8" horiz-adv-x="642" 
d="M321 715q104 0 173 -55t69 -135.5t-62 -138.5q87 -67 87 -176q0 -92 -74 -155t-193 -63t-193 63t-74 155q0 109 87 176q-63 59 -63 139t69.5 135t173.5 55zM321 122q41 0 76 23.5t35 68.5t-34 69t-77 24t-77 -24t-34 -69t35 -68.5t76 -23.5zM321 427q38 0 66.5 24
t28.5 59.5t-28 59.5t-67 24t-67 -24t-28 -59.5t28.5 -59.5t66.5 -24z" />
    <glyph glyph-name="nine" unicode="9" horiz-adv-x="629" 
d="M275 126q65 0 100.5 43.5t43.5 118.5q-64 -43 -138 -43q-98 0 -163.5 64.5t-65.5 170.5t70.5 170.5t177.5 64.5q74 0 128.5 -28.5t85.5 -79.5q59 -99 59 -248q0 -96 -23.5 -168.5t-63.5 -114.5q-82 -84 -199 -84q-49 0 -94 14.5t-68 29t-53 37.5l78 110q7 -6 18.5 -15.5
t44.5 -25.5t62 -16zM374 405q31 27 31 71t-30 76t-75 32t-73.5 -28.5t-28.5 -72.5t26 -74.5t72.5 -30.5t77.5 27z" />
    <glyph glyph-name="colon" unicode=":" horiz-adv-x="310" 
d="M67 80q0 37 25.5 62.5t62.5 25.5t62.5 -25.5t25.5 -62.5t-25.5 -62.5t-62.5 -25.5t-62.5 25.5t-25.5 62.5zM67 343q0 37 25.5 62.5t62.5 25.5t62.5 -25.5t25.5 -62.5t-25.5 -62.5t-62.5 -25.5t-62.5 25.5t-25.5 62.5z" />
    <glyph glyph-name="semicolon" unicode=";" horiz-adv-x="315" 
d="M103 10q-36 26 -36 66t27 65.5t65.5 25.5t66 -25t27.5 -57.5t-29 -82.5l-62 -103h-98zM67 343q0 37 25.5 62.5t62.5 25.5t62.5 -25.5t25.5 -62.5t-25.5 -62.5t-62.5 -25.5t-62.5 25.5t-25.5 62.5z" />
    <glyph glyph-name="less" unicode="&#x3c;" horiz-adv-x="601" 
d="M41 326v137l486 229v-147l-321 -148l321 -152v-148z" />
    <glyph glyph-name="equal" unicode="=" horiz-adv-x="587" 
d="M50 538h487v-123h-487v123zM50 289h487v-123h-487v123z" />
    <glyph glyph-name="greater" unicode="&#x3e;" horiz-adv-x="601" 
d="M560 463v-137l-486 -229v148l321 152l-321 148v147z" />
    <glyph glyph-name="question" unicode="?" horiz-adv-x="524" 
d="M331 208h-152v75q0 41 10.5 61.5t44.5 55.5l68 70q15 18 15 46.5t-16 47.5t-42 19t-43.5 -22.5t-21.5 -59.5h-159q11 100 73 157t155.5 57t152 -51t58.5 -141q0 -40 -10 -59.5t-14 -28t-18.5 -25.5t-19.5 -22q-24 -24 -45.5 -45t-28.5 -34.5t-7 -40.5v-60zM169 80
q0 37 25.5 62.5t62.5 25.5t62.5 -25.5t25.5 -62.5t-25.5 -62.5t-62.5 -25.5t-62.5 25.5t-25.5 62.5z" />
    <glyph glyph-name="at" unicode="@" horiz-adv-x="891" 
d="M688 122q27 0 47.5 43t20.5 108q0 141 -81 233.5t-217 92.5t-229 -97t-93 -232.5t87.5 -225.5t216.5 -90q101 0 178 74l41 -71q-40 -35 -102 -56.5t-117 -21.5q-167 0 -279.5 111.5t-112.5 279t118.5 286t285.5 118.5t279 -114t112 -284q0 -110 -45.5 -176.5
t-119.5 -66.5q-38 0 -69.5 23t-43.5 58q-55 -71 -139.5 -71t-147 64t-62.5 162.5t56.5 166t148.5 67.5q31 0 59 -13.5t40 -26.5l13 -13v41h125v-319q0 -50 30 -50zM507.5 356q-26.5 33 -69.5 33t-68.5 -33t-25.5 -81.5t25.5 -84.5t69.5 -36t69.5 34.5t25.5 84.5t-26.5 83z
" />
    <glyph glyph-name="A" unicode="A" horiz-adv-x="745" 
d="M584 0l-65 151h-293l-65 -151h-166l302 699h151l302 -699h-166zM373 491l-88 -203h175z" />
    <glyph glyph-name="B" unicode="B" horiz-adv-x="689" 
d="M392 0h-306v699h272q71 0 122.5 -17t77.5 -46q47 -54 47 -122q0 -82 -53 -122q-18 -14 -25 -17.5t-25 -11.5q65 -14 103.5 -58.5t38.5 -110.5q0 -73 -50 -129q-58 -65 -202 -65zM242 416h74q65 0 96.5 14t31.5 60.5t-29 61.5t-98 15h-75v-151zM242 132h107
q67 0 100.5 16.5t33.5 65t-35.5 64t-113.5 15.5h-92v-161z" />
    <glyph glyph-name="C" unicode="C" horiz-adv-x="732" 
d="M407 138q115 0 188 91l100 -103q-119 -134 -280.5 -134t-266 102t-104.5 257.5t106.5 259.5t260.5 104q172 0 288 -131l-97 -110q-74 92 -184 92q-88 0 -150.5 -57.5t-62.5 -155t59 -156.5t143 -59z" />
    <glyph glyph-name="D" unicode="D" horiz-adv-x="769" 
d="M620 607.5q100 -91.5 100 -254.5t-97.5 -258t-297.5 -95h-239v699h247q187 0 287 -91.5zM505.5 192q57.5 54 57.5 157t-57.5 158.5t-176.5 55.5h-87v-425h99q107 0 164.5 54z" />
    <glyph glyph-name="E" unicode="E" horiz-adv-x="654" 
d="M590 699v-139h-348v-144h313v-133h-313v-145h359v-138h-515v699h504z" />
    <glyph glyph-name="F" unicode="F" horiz-adv-x="612" 
d="M566 699v-137h-324v-151h308v-137h-308v-274h-156v699h480z" />
    <glyph glyph-name="G" unicode="G" horiz-adv-x="750" 
d="M540 356h157v-248q-104 -116 -288 -116q-154 0 -258.5 102t-104.5 257.5t106.5 259.5t257 104t261.5 -99l-81 -117q-47 41 -86.5 56.5t-85.5 15.5q-89 0 -150 -60.5t-61 -159.5t58.5 -158.5t139.5 -59.5t135 31v192z" />
    <glyph glyph-name="H" unicode="H" horiz-adv-x="762" 
d="M520 699h156v-699h-156v275h-278v-275h-156v699h156v-292h278v292z" />
    <glyph glyph-name="I" unicode="I" horiz-adv-x="328" 
d="M86 699h156v-699h-156v699z" />
    <glyph glyph-name="J" unicode="J" horiz-adv-x="556" 
d="M112 565v134h364v-456q0 -125 -64.5 -187t-165.5 -62q-126 0 -220 97l81 112q63 -68 132 -68q33 0 56.5 25.5t23.5 76.5v328h-207z" />
    <glyph glyph-name="K" unicode="K" horiz-adv-x="710" 
d="M86 699h156v-287l264 287h193l-278 -309q36 -50 133 -186.5t145 -203.5h-182l-205 276l-70 -78v-198h-156v699z" />
    <glyph glyph-name="L" unicode="L" horiz-adv-x="568" 
d="M86 0v699h156v-560h298v-139h-454z" />
    <glyph glyph-name="M" unicode="M" horiz-adv-x="954" 
d="M712 440l-189 -382h-93l-188 382v-440h-156v699h211l180 -384l181 384h210v-699h-156v440z" />
    <glyph glyph-name="N" unicode="N" horiz-adv-x="817" 
d="M575 699h156v-699h-156l-333 438v-438h-156v699h146l343 -450v450z" />
    <glyph glyph-name="O" unicode="O" horiz-adv-x="826" 
d="M561 513q-60 66 -147.5 66t-147.5 -66t-60 -159.5t60 -159t147.5 -65.5t147.5 65.5t60 159t-60 159.5zM413 -7q-155 0 -261 103.5t-106 257.5t106 257.5t261 103.5t261 -103.5t106 -257.5t-106 -257.5t-261 -103.5z" />
    <glyph glyph-name="P" unicode="P" horiz-adv-x="677" 
d="M567.5 636.5q73.5 -62.5 73.5 -192t-75.5 -189.5t-230.5 -60h-93v-195h-156v699h247q161 0 234.5 -62.5zM453 361.5q28 31.5 28 92t-36.5 86t-113.5 25.5h-89v-235h105q78 0 106 31.5z" />
    <glyph glyph-name="Q" unicode="Q" horiz-adv-x="827" 
d="M780 354q0 -109 -55.5 -196t-149.5 -130q9 -15 28.5 -25.5t40.5 -10.5t41 6.5t32 15.5q26 21 37 41l81 -97q-86 -91 -215 -91q-60 0 -118 33t-89 93q-155 0 -261 103.5t-106 257.5t106 257.5t261 103.5t261 -103.5t106 -257.5zM561 513q-60 66 -147.5 66t-147.5 -66
t-60 -159.5t60 -159t147.5 -65.5t147.5 65.5t60 159t-60 159.5z" />
    <glyph glyph-name="R" unicode="R" horiz-adv-x="727" 
d="M653 467q0 -168 -133 -217l177 -250h-192l-155 223h-108v-223h-156v699h265q163 0 232.5 -55t69.5 -177zM465 384q29 26 29 82.5t-30 77.5t-105 21h-117v-207h114q80 0 109 26z" />
    <glyph glyph-name="S" unicode="S" horiz-adv-x="638" 
d="M249.5 559.5q-22.5 -18.5 -22.5 -49t27.5 -48.5t127 -42.5t154.5 -73.5t55 -143t-70.5 -152.5t-185.5 -58.5q-166 0 -299 123l93 114q113 -99 209 -99q43 0 67.5 18.5t24.5 50t-26 50t-103 37.5q-122 29 -178.5 75.5t-56.5 146t71.5 153.5t178.5 54q70 0 140 -24t122 -68
l-79 -114q-91 69 -188 69q-39 0 -61.5 -18.5z" />
    <glyph glyph-name="T" unicode="T" horiz-adv-x="608" 
d="M382 564v-564h-156v564h-198v135h552v-135h-198z" />
    <glyph glyph-name="U" unicode="U" horiz-adv-x="751" 
d="M376 132q66 0 104.5 48.5t38.5 132.5v386h156v-391q0 -152 -84 -233.5t-215 -81.5t-215.5 82t-84.5 233v391h156v-386q0 -84 39 -132.5t105 -48.5z" />
    <glyph glyph-name="V" unicode="V" horiz-adv-x="688" 
d="M344 254l178 445h169l-281 -699h-132l-281 699h169z" />
    <glyph glyph-name="W" unicode="W" horiz-adv-x="1019" 
d="M304 297l124 402h163l123 -402l139 402h169l-244 -699h-116l-153 486l-152 -486h-116l-244 699h169z" />
    <glyph glyph-name="X" unicode="X" horiz-adv-x="695" 
d="M479 699h188l-218 -337l236 -362h-190l-149 230l-148 -230h-188l235 358l-219 341h187l133 -207z" />
    <glyph glyph-name="Y" unicode="Y" horiz-adv-x="618" 
d="M387 0h-156v276l-242 423h169l151 -260l151 260h169l-242 -423v-276z" />
    <glyph glyph-name="Z" unicode="Z" horiz-adv-x="681" 
d="M46 0v107l366 457h-354v135h567v-108l-365 -455h371v-136h-585z" />
    <glyph glyph-name="bracketleft" unicode="[" horiz-adv-x="374" 
d="M334 757v-113h-129v-665h129v-113h-257v891h257z" />
    <glyph glyph-name="backslash" unicode="\" horiz-adv-x="572" 
d="M28 757h151l364 -757h-151z" />
    <glyph glyph-name="bracketright" unicode="]" horiz-adv-x="374" 
d="M40 -134v113h129v665h-129v113h257v-891h-257z" />
    <glyph glyph-name="asciicircum" unicode="^" horiz-adv-x="483" 
d="M165 771h-143l137 177h165l137 -177h-143l-77 85z" />
    <glyph glyph-name="underscore" unicode="_" horiz-adv-x="720" 
d="M67 -132v87h586v-87h-586z" />
    <glyph glyph-name="grave" unicode="`" horiz-adv-x="382" 
d="M332 769h-143l-139 112l154 66z" />
    <glyph glyph-name="a" unicode="a" horiz-adv-x="594" 
d="M528 0h-141v65q-58 -73 -143.5 -73t-143.5 49.5t-58 132t60 123.5t164 41h112v3q0 86 -91 86q-39 0 -82.5 -15.5t-73.5 -38.5l-67 97q106 77 242 77q98 0 160 -49t62 -155v-343zM377 205v26h-94q-90 0 -90 -56q0 -29 21.5 -44.5t61.5 -15.5t70.5 24.5t30.5 65.5z" />
    <glyph glyph-name="b" unicode="b" horiz-adv-x="666" 
d="M552 470.5q73 -76.5 73 -196.5t-75 -201t-170.5 -81t-158.5 79v-71h-150v742h150v-264q62 69 160 69t171 -76.5zM255.5 161.5q36.5 -41.5 88.5 -41.5t91 41.5t39 106.5t-38 109t-91 44t-89.5 -43.5t-36.5 -109t36.5 -107z" />
    <glyph glyph-name="c" unicode="c" horiz-adv-x="582" 
d="M329 125q75 0 135 75l89 -100q-104 -108 -225 -108t-204.5 76.5t-83.5 200t84.5 201t200.5 77.5q58 0 117.5 -24t104.5 -71l-78 -102q-26 31 -63.5 48t-74.5 17q-59 0 -101.5 -38.5t-42.5 -107t42.5 -106.5t99.5 -38z" />
    <glyph glyph-name="d" unicode="d" horiz-adv-x="666" 
d="M116 73q-75 81 -75 201t73 196.5t171 76.5t160 -69v264h150v-742h-150v71q-63 -79 -158.5 -79t-170.5 81zM231 161.5q39 -41.5 91 -41.5t88.5 41.5t36.5 107t-36.5 109t-89.5 43.5t-91 -44t-38 -109t39 -106.5z" />
    <glyph glyph-name="e" unicode="e" horiz-adv-x="618" 
d="M537 78q-91 -86 -213.5 -86t-202.5 75.5t-80 202.5t81.5 202t192.5 75t188.5 -67t77.5 -184v-80h-392q7 -44 46 -72t88 -28q79 0 130 53zM393 397q-31 26 -75.5 26t-81.5 -27t-43 -73h236q-5 48 -36 74z" />
    <glyph glyph-name="f" unicode="f" horiz-adv-x="402" 
d="M250 569v-36h130v-108h-130v-425h-151v425h-63v108h63v33q0 88 53.5 139.5t133 51.5t144.5 -60l-54 -101q-33 38 -73 38q-23 0 -38 -16.5t-15 -48.5z" />
    <glyph glyph-name="g" unicode="g" horiz-adv-x="667" 
d="M412 382q-36 37 -89 37t-91.5 -37t-38.5 -101t37.5 -103.5t91.5 -39.5t90 39t36 103.5t-36 101.5zM469 91q-71 -79 -176.5 -79t-178 71.5t-72.5 191t74.5 196t170.5 76.5t159 -79v71h150v-469q0 -72 -25 -128t-67 -88q-83 -66 -196 -66q-60 0 -122.5 19.5t-109.5 55.5
l58 113q74 -56 156.5 -56t130.5 41t48 130z" />
    <glyph glyph-name="h" unicode="h" horiz-adv-x="639" 
d="M221 290v-290h-150v742h150v-264q68 69 152.5 69t142.5 -60t58 -160v-327h-150v294q0 124 -91 124q-45 0 -78.5 -32.5t-33.5 -95.5z" />
    <glyph glyph-name="i" unicode="i" 
d="M221 0h-150v538h150v-538zM58 669q0 37 25.5 62.5t62.5 25.5t62.5 -25.5t25.5 -62.5t-25.5 -62.5t-62.5 -25.5t-62.5 25.5t-25.5 62.5z" />
    <glyph glyph-name="j" unicode="j" horiz-adv-x="343" 
d="M122 -10v549h150v-561q0 -88 -53.5 -139t-131 -51t-147.5 64l69 111q30 -35 67 -35q20 0 33 15.5t13 46.5zM109 669q0 37 25.5 62.5t62.5 25.5t62.5 -25.5t25.5 -62.5t-25.5 -62.5t-62.5 -25.5t-62.5 25.5t-25.5 62.5z" />
    <glyph glyph-name="k" unicode="k" horiz-adv-x="595" 
d="M221 0h-150v742h150v-381l167 178h189l-205 -218l213 -321h-178l-137 206l-49 -51v-155z" />
    <glyph glyph-name="l" unicode="l" 
d="M221 0h-150v742h150v-742z" />
    <glyph glyph-name="m" unicode="m" horiz-adv-x="983" 
d="M565 290v-290h-151v294q0 64 -19.5 94t-63 30t-77 -32.5t-33.5 -95.5v-290h-150v538h150v-61q62 70 142 70q51 0 92.5 -30t62.5 -73q31 49 83.5 76t105.5 27q95 0 153 -56.5t58 -163.5v-327h-151v294q0 124 -91 124q-45 0 -78 -32.5t-33 -95.5z" />
    <glyph glyph-name="n" unicode="n" horiz-adv-x="639" 
d="M221 300v-300h-150v538h150v-60q68 69 153 69t142.5 -60t57.5 -160v-327h-150v304q0 124 -91 124q-45 0 -78.5 -32.5t-33.5 -95.5z" />
    <glyph glyph-name="o" unicode="o" horiz-adv-x="649" 
d="M228.5 161.5q37.5 -41.5 96 -41.5t96 41.5t37.5 107.5t-37.5 108t-96 42t-96 -42t-37.5 -108t37.5 -107.5zM528 72q-81 -80 -203.5 -80t-203.5 80t-81 197t81 197.5t203.5 80.5t203.5 -80.5t81 -197.5t-81 -197z" />
    <glyph glyph-name="p" unicode="p" horiz-adv-x="666" 
d="M551.5 468.5q73.5 -78.5 73.5 -197.5t-73.5 -199t-172 -80t-158.5 79v-265h-150v732h150v-60q69 69 163 69t167.5 -78.5zM255.5 161.5q36.5 -41.5 88.5 -41.5t91 41.5t39 106.5t-38 109t-91 44t-89.5 -43.5t-36.5 -109t36.5 -107z" />
    <glyph glyph-name="q" unicode="q" horiz-adv-x="666" 
d="M118 69.5q-77 77.5 -77 199t75 200t167 78.5t161 -69v60h151v-732h-151v237q-64 -51 -146 -51q-103 0 -180 77.5zM231 161.5q39 -41.5 91 -41.5t88 41.5t36 107t-36 109t-89 43.5t-91 -43.5t-38 -109t39 -107z" />
    <glyph glyph-name="r" unicode="r" horiz-adv-x="411" 
d="M354 406q-67 0 -100 -47.5t-33 -125.5v-233h-150v538h150v-71q29 33 72.5 56t88.5 24l1 -141h-29z" />
    <glyph glyph-name="s" unicode="s" horiz-adv-x="520" 
d="M417.5 40q-58.5 -48 -148.5 -48q-60 0 -125 21.5t-117 63.5l66 94q84 -65 179 -65q29 0 46 11.5t17 30.5t-23.5 35t-68 30t-68 24t-53.5 29q-61 38 -61 112.5t60 121.5t155 47t190 -64l-56 -100q-70 48 -139.5 48t-69.5 -38q0 -21 22 -33t73 -28t72.5 -24.5t51.5 -26.5
q56 -34 56 -113.5t-58.5 -127.5z" />
    <glyph glyph-name="t" unicode="t" horiz-adv-x="440" 
d="M250 430v-241q0 -31 16 -48.5t38 -17.5q42 0 71 38l56 -105q-70 -64 -147.5 -64t-131 51t-53.5 139v248h-63v108h63v161h151v-161h130v-108h-130z" />
    <glyph glyph-name="u" unicode="u" horiz-adv-x="640" 
d="M418 248v290h151v-538h-151v71q-56 -79 -144.5 -79t-148.5 55.5t-60 164.5v326h151v-293q0 -124 91 -124q45 0 78 32.5t33 94.5z" />
    <glyph glyph-name="v" unicode="v" horiz-adv-x="586" 
d="M216 0l-213 539h156l134 -339l134 339h156l-213 -539h-154z" />
    <glyph glyph-name="w" unicode="w" horiz-adv-x="902" 
d="M351 0h-155l-183 538h155l105 -325l105 325h145l105 -325l105 325h156l-183 -538h-156l-99 293z" />
    <glyph glyph-name="x" unicode="x" horiz-adv-x="585" 
d="M202 538l92 -144l95 144h176l-185 -263l192 -275h-179l-105 148l-102 -148h-173l188 274l-178 264h179z" />
    <glyph glyph-name="y" unicode="y" horiz-adv-x="590" 
d="M164 -212q-79 0 -149 64l68 111q38 -37 78 -37q21 0 36 20.5t15 43.5t-208 548h160l131 -335l131 335h160l-250 -634q-22 -55 -68.5 -85.5t-103.5 -30.5z" />
    <glyph glyph-name="z" unicode="z" horiz-adv-x="553" 
d="M61 414v124h434v-117l-261 -296h276v-125h-468v124l254 290h-235z" />
    <glyph glyph-name="braceleft" unicode="{" horiz-adv-x="360" 
d="M311 635l-21 1q-44 0 -44 -39v-209q0 -53 -37 -78q37 -24 37 -77v-218q0 -33 65 -33v-122h-55q-150 0 -150 143v205q0 41 -23 41h-46v122h46q23 0 23 42v201q0 143 150 143h55v-122z" />
    <glyph glyph-name="bar" unicode="|" horiz-adv-x="276" 
d="M76 -146v923h124v-923h-124z" />
    <glyph glyph-name="braceright" unicode="}" horiz-adv-x="360" 
d="M49 -18l21 -1q44 0 44 39v209q0 53 37 78q-37 24 -37 77v218q0 33 -65 33v122h55q150 0 150 -143v-205q0 -41 23 -41h46v-122h-46q-23 0 -23 -42v-201q0 -143 -150 -143h-55v122z" />
    <glyph glyph-name="asciitilde" unicode="~" horiz-adv-x="535" 
d="M357 414q33 0 33 43q0 10 -3 22l120 -32q-6 -83 -44 -120.5t-95 -37.5q-34 0 -97.5 32.5t-82.5 32.5t-32 -19t-12 -54l-119 36q7 80 47 120.5t103 40.5q36 0 98 -32t84 -32z" />
    <glyph glyph-name="exclamdown" unicode="&#xa1;" horiz-adv-x="318" 
d="M248 0h-177v132l29 360h118l30 -360v-132zM71 627q0 37 25.5 62.5t62.5 25.5t62.5 -25.5t25.5 -62.5t-25.5 -62.5t-62.5 -25.5t-62.5 25.5t-25.5 62.5z" />
    <glyph glyph-name="cent" unicode="&#xa2;" horiz-adv-x="598" 
d="M376 -117h-96v113q-99 16 -166.5 89t-67.5 183t67 184t167 90v115h96v-114q102 -15 177 -91l-78 -102q-41 47 -99 60v-279q26 8 49.5 25t34.5 30l10 14l89 -100q-83 -87 -183 -103v-114zM217 354.5q-24 -34.5 -24 -85t24 -85.5t63 -49v269q-39 -15 -63 -49.5z" />
    <glyph glyph-name="sterling" unicode="&#xa3;" horiz-adv-x="628" 
d="M295 508v-109h156v-126h-156v-140h278v-133h-511v133h76v140h-80v126h80v103q0 124 63.5 180.5t166.5 56.5q138 0 210 -126l-111 -90q-16 37 -41 58t-55 21t-53 -22.5t-23 -71.5z" />
    <glyph glyph-name="currency" unicode="&#xa4;" horiz-adv-x="761" 
d="M142 163q-46 67 -46 153.5t44 153.5l-84 85l94 95l89 -89q65 35 142 35t141 -36l89 90l94 -95l-84 -86q44 -68 44 -152.5t-47 -153.5l87 -88l-93 -95l-93 94q-66 -34 -140.5 -34t-136.5 34l-93 -94l-93 95zM380 174q56 0 92 40.5t36 103.5t-36 103t-92 40t-92 -40
t-36 -103t36 -103.5t92 -40.5z" />
    <glyph glyph-name="yen" unicode="&#xa5;" horiz-adv-x="741" 
d="M108 224h178v55h-178v96h114l-188 323h170l165 -285l171 285h169l-194 -323h110v-96h-176v-55h176v-96h-176v-128h-163v128h-178v96z" />
    <glyph glyph-name="brokenbar" unicode="&#xa6;" horiz-adv-x="294" 
d="M80 409v345h134v-345h-134zM80 -23v344h134v-344h-134z" />
    <glyph glyph-name="section" unicode="&#xa7;" horiz-adv-x="622" 
d="M255.5 602q-18.5 -15 -18.5 -40.5t23.5 -41t93.5 -33.5q120 -29 172 -69.5t52 -116.5q0 -101 -102 -143q64 -43 64 -115.5t-61 -123.5t-163 -51q-143 0 -263 109l84 101q105 -88 182 -88t77 48q0 24 -28 41t-117.5 43t-145 68.5t-55.5 123.5q0 42 24.5 79.5t70.5 57.5
q-54 38 -54 103q0 82 61 133.5t156 51.5q66 0 118 -18.5t109 -60.5l-75 -107q-84 64 -154 64q-32 0 -50.5 -15zM183 318q0 -38 48.5 -62.5t123.5 -24.5q38 0 64 16.5t26 43.5q0 41 -59.5 61t-107.5 20q-95 0 -95 -54z" />
    <glyph glyph-name="dieresis" unicode="&#xa8;" horiz-adv-x="531" 
d="M95 691q0 31 21.5 52.5t52.5 21.5t52.5 -21.5t21.5 -52.5t-21.5 -52.5t-52.5 -21.5t-52.5 21.5t-21.5 52.5zM288 691q0 31 21.5 52.5t52.5 21.5t52.5 -21.5t21.5 -52.5t-21.5 -52.5t-52.5 -21.5t-52.5 21.5t-21.5 52.5z" />
    <glyph glyph-name="copyright" unicode="&#xa9;" horiz-adv-x="824" 
d="M773 350q0 -149 -105.5 -255.5t-256.5 -106.5t-255.5 105.5t-104.5 254.5t105.5 256t255.5 107t255.5 -106t105.5 -255zM699 350q0 118 -84 202t-202.5 84t-203 -85t-84.5 -203t83 -202t203 -84t204 85t84 203zM416 146q-84 0 -145 57t-61 149t63 149.5t155 57.5t160 -71
l-60 -75q-40 48 -101 48q-43 0 -73.5 -28.5t-30.5 -79t31.5 -80t75.5 -29.5q65 0 100 58l62 -75q-77 -81 -176 -81z" />
    <glyph glyph-name="ordfeminine" unicode="&#xaa;" horiz-adv-x="358" 
d="M289 458h-74v31q-22 -34 -65 -34t-71 23t-28 61t29.5 57.5t79.5 19.5h51v3q0 43 -38 43q-30 0 -62 -14l-10 -5l-24 44q43 28 97 28q115 0 115 -95v-162zM210 554v15h-44q-36 0 -36 -30q0 -14 9 -22t26.5 -8t31 12t13.5 33z" />
    <glyph glyph-name="guillemotleft" unicode="&#xab;" horiz-adv-x="604" 
d="M321 429l-118 -184l118 -185h-151l-122 185l122 184h151zM546 429l-118 -184l118 -185h-151l-122 185l122 184h151z" />
    <glyph glyph-name="logicalnot" unicode="&#xac;" horiz-adv-x="817" 
d="M63 445h669v-357h-112v239h-557v118z" />
    <glyph glyph-name="registered" unicode="&#xae;" horiz-adv-x="824" 
d="M773 350q0 -149 -105.5 -255.5t-256.5 -106.5t-255.5 105.5t-104.5 254.5t105.5 256t255.5 107t255.5 -106t105.5 -255zM619 151q80 83 80 200t-84 201t-202.5 84t-203 -85t-84.5 -203t83 -202t204 -84t205 87h-116l-87 125h-44v-125h-110v406h161q96 0 137 -33t41 -106
q0 -89 -81 -124zM476 376.5q14 12.5 14 40t-14.5 38t-50.5 10.5h-55v-101h53q39 0 53 12.5z" />
    <glyph glyph-name="macron" unicode="&#xaf;" horiz-adv-x="442" 
d="M388 687v-116h-333v116h333z" />
    <glyph glyph-name="degree" unicode="&#xb0;" horiz-adv-x="428" 
d="M214 714q69 0 118 -48t49 -115.5t-49 -115t-118 -47.5t-118 47.5t-49 115t49 115.5t118 48zM163 493.5q21 -23.5 51 -23.5t50.5 23t20.5 57t-20.5 57t-50.5 23t-51 -23t-21 -56.5t21 -57z" />
    <glyph glyph-name="plusminus" unicode="&#xb1;" horiz-adv-x="581" 
d="M221 652h138v-144h174v-117h-174v-139h-138v139h-173v117h173v144zM48 202h485v-113h-485v113z" />
    <glyph glyph-name="twosuperior" unicode="&#xb2;" horiz-adv-x="439" 
d="M240 542.5q15 20.5 15 38.5t-11 30t-28 12q-33 0 -70 -59l-87 52q32 49 68.5 74t93 25t99.5 -35.5t43 -96.5q0 -32 -17 -62t-62 -77l-62 -65h153v-96h-307v77l122 126q35 36 50 56.5z" />
    <glyph glyph-name="threesuperior" unicode="&#xb3;" horiz-adv-x="436" 
d="M76 607v92h272v-73l-79 -91q47 -12 72.5 -46.5t25.5 -77.5q0 -67 -46.5 -106t-119 -39t-150.5 54l46 83q57 -43 107 -43q24 0 39.5 12t15.5 36t-21.5 36.5t-54.5 12.5t-58 -12v75l73 87h-122z" />
    <glyph glyph-name="acute" unicode="&#xb4;" horiz-adv-x="382" 
d="M193 771h-143l127 177l155 -65z" />
    <glyph glyph-name="mu" unicode="&#xb5;" horiz-adv-x="647" 
d="M79 -185v723h151v-293q0 -124 91 -124q45 0 78 32.5t33 94.5v290h151v-538h-151v45q-59 -53 -142 -53q-35 0 -60 7v-184h-151z" />
    <glyph glyph-name="paragraph" unicode="&#xb6;" horiz-adv-x="712" 
d="M34 548q0 88 60.5 148t184.5 60h342v-861h-133v737h-98v-737h-130v453h-20q-130 0 -180 96q-26 49 -26 104z" />
    <glyph glyph-name="periodcentered" unicode="&#xb7;" horiz-adv-x="298" 
d="M61 318q0 37 25.5 62.5t62.5 25.5t62.5 -25.5t25.5 -62.5t-25.5 -62.5t-62.5 -25.5t-62.5 25.5t-25.5 62.5z" />
    <glyph glyph-name="cedilla" unicode="&#xb8;" horiz-adv-x="281" 
d="M244 -127q0 -43 -35.5 -75t-89.5 -32t-105 32l38 86q22 -19 39 -19t26.5 9t9.5 22.5t-12 24t-28.5 10.5t-35.5 -9l41 78h115l-28 -51q65 -22 65 -76z" />
    <glyph glyph-name="onesuperior" unicode="&#xb9;" horiz-adv-x="298" 
d="M40 699h185v-423h-107v332h-78v91z" />
    <glyph glyph-name="ordmasculine" unicode="&#xba;" horiz-adv-x="393" 
d="M159.5 530q14.5 -17 37 -17t37 17t14.5 44.5t-14.5 45t-37 17.5t-37 -17.5t-14.5 -45t14.5 -44.5zM302 474.5q-42 -40.5 -105.5 -40.5t-105.5 41t-42 99.5t42 99.5t105.5 41t105.5 -41t42 -100t-42 -99.5z" />
    <glyph glyph-name="guillemotright" unicode="&#xbb;" horiz-adv-x="604" 
d="M401 245l-118 184h151l122 -184l-122 -185h-151zM176 245l-118 184h151l122 -184l-122 -185h-151z" />
    <glyph glyph-name="onequarter" unicode="&#xbc;" horiz-adv-x="855" 
d="M562 754h115l-364 -762h-115zM36 698h184v-422h-107v331h-77v91zM681 262h91v-84h46v-80h-46v-98h-91v98h-179v77l147 247h110l-146 -244h68v84z" />
    <glyph glyph-name="onehalf" unicode="&#xbd;" horiz-adv-x="878" 
d="M551 754h116l-364 -762h-116zM36 699h184v-423h-107v332h-77v91zM700 259.5q15 20.5 15 38.5t-11 30t-28 12q-33 0 -70 -59l-87 52q32 49 68.5 74t93 25t99.5 -35.5t43 -96.5q0 -32 -17 -62t-62 -77l-62 -65h153v-96h-307v77l122 126q35 36 50 56.5z" />
    <glyph glyph-name="threequarters" unicode="&#xbe;" horiz-adv-x="901" 
d="M607 754h115l-364 -762h-115zM64 607v92h272v-73l-79 -91q47 -12 72.5 -46.5t25.5 -77.5q0 -67 -46.5 -106t-119 -39t-150.5 54l46 83q57 -43 107 -43q24 0 39.5 12t15.5 36t-21.5 36.5t-54.5 12.5t-58 -12v75l73 87h-122zM728 262h91v-84h46v-80h-46v-98h-91v98h-179v77
l147 247h110l-146 -244h68v84z" />
    <glyph glyph-name="questiondown" unicode="&#xbf;" horiz-adv-x="526" 
d="M195 499h152v-75q0 -41 -10.5 -61.5t-44.5 -55.5l-68 -70q-15 -18 -15 -46.5t16 -47.5t42 -19t43.5 22.5t21.5 59.5h159q-11 -100 -73 -157t-155.5 -57t-152 51t-58.5 141q0 40 10 59.5t14 28t18.5 25.5t19.5 21q24 25 45.5 46t28.5 34.5t7 40.5v60zM357 627
q0 -37 -25.5 -62.5t-62.5 -25.5t-62.5 25.5t-25.5 62.5t25.5 62.5t62.5 25.5t62.5 -25.5t25.5 -62.5z" />
    <glyph glyph-name="Agrave" unicode="&#xc0;" horiz-adv-x="745" 
d="M584 0l-65 151h-293l-65 -151h-166l302 699h151l302 -699h-166zM373 491l-88 -203h175zM448 769h-143l-139 112l154 66z" />
    <glyph glyph-name="Aacute" unicode="&#xc1;" horiz-adv-x="745" 
d="M584 0l-65 151h-293l-65 -151h-166l302 699h151l302 -699h-166zM373 491l-88 -203h175zM439 771h-143l127 177l155 -65z" />
    <glyph glyph-name="Acircumflex" unicode="&#xc2;" horiz-adv-x="745" 
d="M584 0l-65 151h-293l-65 -151h-166l302 699h151l302 -699h-166zM373 491l-88 -203h175zM283 769h-123l113 158h187l113 -158h-123l-84 81z" />
    <glyph glyph-name="Atilde" unicode="&#xc3;" horiz-adv-x="745" 
d="M584 0l-65 151h-293l-65 -151h-166l302 699h151l302 -699h-166zM373 491l-88 -203h175zM309 821q-31 0 -30 -52h-106q0 75 32.5 118t83.5 43q32 0 77.5 -27.5t55.5 -27.5q31 0 30 52h106q0 -75 -32.5 -118t-83.5 -43q-31 0 -78 27.5t-55 27.5z" />
    <glyph glyph-name="Adieresis" unicode="&#xc4;" horiz-adv-x="745" 
d="M584 0l-65 151h-293l-65 -151h-166l302 699h151l302 -699h-166zM373 491l-88 -203h175zM205 847q0 31 21.5 52.5t52.5 21.5t52.5 -21.5t21.5 -52.5t-21.5 -52.5t-52.5 -21.5t-52.5 21.5t-21.5 52.5zM398 847q0 31 21.5 52.5t52.5 21.5t52.5 -21.5t21.5 -52.5t-21.5 -52.5
t-52.5 -21.5t-52.5 21.5t-21.5 52.5z" />
    <glyph glyph-name="Aring" unicode="&#xc5;" horiz-adv-x="745" 
d="M296 698q-30 32 -30 75.5t31.5 75t75.5 31.5t75.5 -31.5t31.5 -75.5t-32 -76l302 -697h-166l-65 151h-293l-65 -151h-166zM373 491l-88 -203h175zM338 773q0 -14 10.5 -24.5t24.5 -10.5t24.5 10.5t10.5 24.5t-10.5 24.5t-24.5 10.5t-24.5 -10.5t-10.5 -24.5z" />
    <glyph glyph-name="AE" unicode="&#xc6;" horiz-adv-x="1023" 
d="M960 699v-137h-349v-151h313v-131h-313v-143h360v-137h-526v151h-198l-79 -151h-184l359 699h617zM445 292v246l-127 -246h127z" />
    <glyph glyph-name="Ccedilla" unicode="&#xc7;" horiz-adv-x="732" 
d="M407 138q115 0 188 91l100 -103q-101 -114 -242 -131l-26 -48q65 -22 65 -76q0 -43 -35.5 -75t-89.5 -32t-105 32l38 86q22 -19 39 -19t26.5 9t9.5 22.5t-12 24t-28.5 10.5t-35.5 -9l41 78q-130 22 -213 119.5t-83 243.5t106.5 250t260.5 104q172 0 288 -131l-97 -110
q-74 92 -184 92q-88 0 -150.5 -57.5t-62.5 -155t59 -156.5t143 -59z" />
    <glyph glyph-name="Egrave" unicode="&#xc8;" horiz-adv-x="654" 
d="M590 699v-139h-348v-144h313v-133h-313v-145h359v-138h-515v699h504zM404 769h-143l-139 112l154 66z" />
    <glyph glyph-name="Eacute" unicode="&#xc9;" horiz-adv-x="654" 
d="M590 699v-139h-348v-144h313v-133h-313v-145h359v-138h-515v699h504zM395 771h-143l127 177l155 -65z" />
    <glyph glyph-name="Ecircumflex" unicode="&#xca;" horiz-adv-x="654" 
d="M590 699v-139h-348v-144h313v-133h-313v-145h359v-138h-515v699h504zM239 769h-123l113 158h187l113 -158h-123l-84 81z" />
    <glyph glyph-name="Edieresis" unicode="&#xcb;" horiz-adv-x="654" 
d="M590 699v-139h-348v-144h313v-133h-313v-145h359v-138h-515v699h504zM170 847q0 31 21.5 52.5t52.5 21.5t52.5 -21.5t21.5 -52.5t-21.5 -52.5t-52.5 -21.5t-52.5 21.5t-21.5 52.5zM363 847q0 31 21.5 52.5t52.5 21.5t52.5 -21.5t21.5 -52.5t-21.5 -52.5t-52.5 -21.5
t-52.5 21.5t-21.5 52.5z" />
    <glyph glyph-name="Igrave" unicode="&#xcc;" horiz-adv-x="328" 
d="M86 699h156v-699h-156v699zM245 769h-143l-139 112l154 66z" />
    <glyph glyph-name="Iacute" unicode="&#xcd;" horiz-adv-x="328" 
d="M86 699h156v-699h-156v699zM236 771h-143l127 177l155 -65z" />
    <glyph glyph-name="Icircumflex" unicode="&#xce;" horiz-adv-x="328" 
d="M86 699h156v-699h-156v699zM81 770h-123l113 158h187l113 -158h-123l-84 81z" />
    <glyph glyph-name="Idieresis" unicode="&#xcf;" horiz-adv-x="328" 
d="M86 699h156v-699h-156v699zM-7 847q0 31 21.5 52.5t52.5 21.5t52.5 -21.5t21.5 -52.5t-21.5 -52.5t-52.5 -21.5t-52.5 21.5t-21.5 52.5zM186 847q0 31 21.5 52.5t52.5 21.5t52.5 -21.5t21.5 -52.5t-21.5 -52.5t-52.5 -21.5t-52.5 21.5t-21.5 52.5z" />
    <glyph glyph-name="Eth" unicode="&#xd0;" horiz-adv-x="784" 
d="M26 280v133h74v286h247q187 0 287 -91.5t100 -254.5t-97.5 -258t-297.5 -95h-239v280h-74zM519.5 192q57.5 54 57.5 157t-57.5 158.5t-176.5 55.5h-87v-150h234v-133h-234v-142h99q107 0 164.5 54z" />
    <glyph glyph-name="Ntilde" unicode="&#xd1;" horiz-adv-x="817" 
d="M575 699h156v-699h-156l-333 438v-438h-156v699h146l343 -450v450zM350 820q-31 0 -30 -52h-106q0 75 32.5 118t83.5 43q32 0 77.5 -27.5t55.5 -27.5q31 0 30 52h106q0 -75 -32.5 -118t-83.5 -43q-31 0 -78 27.5t-55 27.5z" />
    <glyph glyph-name="Ograve" unicode="&#xd2;" horiz-adv-x="826" 
d="M561 513q-60 66 -147.5 66t-147.5 -66t-60 -159.5t60 -159t147.5 -65.5t147.5 65.5t60 159t-60 159.5zM413 -7q-155 0 -261 103.5t-106 257.5t106 257.5t261 103.5t261 -103.5t106 -257.5t-106 -257.5t-261 -103.5zM494 769h-143l-139 112l154 66z" />
    <glyph glyph-name="Oacute" unicode="&#xd3;" horiz-adv-x="826" 
d="M561 513q-60 66 -147.5 66t-147.5 -66t-60 -159.5t60 -159t147.5 -65.5t147.5 65.5t60 159t-60 159.5zM413 -7q-155 0 -261 103.5t-106 257.5t106 257.5t261 103.5t261 -103.5t106 -257.5t-106 -257.5t-261 -103.5zM485 771h-143l127 177l155 -65z" />
    <glyph glyph-name="Ocircumflex" unicode="&#xd4;" horiz-adv-x="826" 
d="M561 513q-60 66 -147.5 66t-147.5 -66t-60 -159.5t60 -159t147.5 -65.5t147.5 65.5t60 159t-60 159.5zM413 -7q-155 0 -261 103.5t-106 257.5t106 257.5t261 103.5t261 -103.5t106 -257.5t-106 -257.5t-261 -103.5zM329 769h-123l113 158h187l113 -158h-123l-84 81z" />
    <glyph glyph-name="Otilde" unicode="&#xd5;" horiz-adv-x="826" 
d="M561 513q-60 66 -147.5 66t-147.5 -66t-60 -159.5t60 -159t147.5 -65.5t147.5 65.5t60 159t-60 159.5zM413 -7q-155 0 -261 103.5t-106 257.5t106 257.5t261 103.5t261 -103.5t106 -257.5t-106 -257.5t-261 -103.5zM355 820q-31 0 -30 -52h-106q0 75 32.5 118t83.5 43
q32 0 77.5 -27.5t55.5 -27.5q31 0 30 52h106q0 -75 -32.5 -118t-83.5 -43q-31 0 -78 27.5t-55 27.5z" />
    <glyph glyph-name="Odieresis" unicode="&#xd6;" horiz-adv-x="826" 
d="M561 513q-60 66 -147.5 66t-147.5 -66t-60 -159.5t60 -159t147.5 -65.5t147.5 65.5t60 159t-60 159.5zM413 -7q-155 0 -261 103.5t-106 257.5t106 257.5t261 103.5t261 -103.5t106 -257.5t-106 -257.5t-261 -103.5zM241 847q0 31 21.5 52.5t52.5 21.5t52.5 -21.5
t21.5 -52.5t-21.5 -52.5t-52.5 -21.5t-52.5 21.5t-21.5 52.5zM434 847q0 31 21.5 52.5t52.5 21.5t52.5 -21.5t21.5 -52.5t-21.5 -52.5t-52.5 -21.5t-52.5 21.5t-21.5 52.5z" />
    <glyph glyph-name="multiply" unicode="&#xd7;" horiz-adv-x="589" 
d="M295 451l159 163l86 -89l-157 -161l158 -163l-86 -89l-160 163l-159 -163l-88 89l160 163l-159 161l88 89z" />
    <glyph glyph-name="Oslash" unicode="&#xd8;" horiz-adv-x="826" 
d="M780 354q0 -154 -106 -257.5t-261 -103.5q-39 0 -79 8l-52 -113h-141l73 160q-78 48 -123 128.5t-45 177.5q0 154 106 257.5t261 103.5q48 0 100 -13l47 103h142l-72 -157q70 -49 110 -126t40 -168zM413 579q-87 0 -147 -66t-60 -165t70 -164l179 390q-23 5 -42 5z
M561 194.5q60 65.5 60 156.5t-56 157l-172 -378q6 -1 20 -1q88 0 148 65.5z" />
    <glyph glyph-name="Ugrave" unicode="&#xd9;" horiz-adv-x="751" 
d="M376 132q66 0 104.5 48.5t38.5 132.5v386h156v-391q0 -152 -84 -233.5t-215 -81.5t-215.5 82t-84.5 233v391h156v-386q0 -84 39 -132.5t105 -48.5zM455 769h-143l-139 112l154 66z" />
    <glyph glyph-name="Uacute" unicode="&#xda;" horiz-adv-x="751" 
d="M376 132q66 0 104.5 48.5t38.5 132.5v386h156v-391q0 -152 -84 -233.5t-215 -81.5t-215.5 82t-84.5 233v391h156v-386q0 -84 39 -132.5t105 -48.5zM447 771h-143l127 177l155 -65z" />
    <glyph glyph-name="Ucircumflex" unicode="&#xdb;" horiz-adv-x="751" 
d="M376 132q66 0 104.5 48.5t38.5 132.5v386h156v-391q0 -152 -84 -233.5t-215 -81.5t-215.5 82t-84.5 233v391h156v-386q0 -84 39 -132.5t105 -48.5zM291 769h-123l113 158h187l113 -158h-123l-84 81z" />
    <glyph glyph-name="Udieresis" unicode="&#xdc;" horiz-adv-x="751" 
d="M376 132q66 0 104.5 48.5t38.5 132.5v386h156v-391q0 -152 -84 -233.5t-215 -81.5t-215.5 82t-84.5 233v391h156v-386q0 -84 39 -132.5t105 -48.5zM204 847q0 31 21.5 52.5t52.5 21.5t52.5 -21.5t21.5 -52.5t-21.5 -52.5t-52.5 -21.5t-52.5 21.5t-21.5 52.5zM397 847
q0 31 21.5 52.5t52.5 21.5t52.5 -21.5t21.5 -52.5t-21.5 -52.5t-52.5 -21.5t-52.5 21.5t-21.5 52.5z" />
    <glyph glyph-name="Yacute" unicode="&#xdd;" horiz-adv-x="618" 
d="M387 0h-156v276l-242 423h169l151 -260l151 260h169l-242 -423v-276zM361 771h-143l127 177l155 -65z" />
    <glyph glyph-name="Thorn" unicode="&#xde;" horiz-adv-x="685" 
d="M641 368q0 -136 -79.5 -196.5t-236.5 -60.5h-83v-111h-156v699h156v-84h81q318 0 318 -247zM449 278.5q32 32.5 32 92t-40 84.5t-120 25h-79v-234h95q80 0 112 32.5z" />
    <glyph glyph-name="germandbls" unicode="&#xdf;" horiz-adv-x="647" 
d="M378.5 465.5q32.5 30.5 32.5 68t-19 64t-60 26.5q-58 0 -82 -41t-24 -120v-463h-156v450q0 98 20 154q8 25 27 56t45 50q60 47 159 47q57 0 101.5 -14.5t70.5 -36t43 -50.5q28 -51 28 -109q0 -93 -77 -156q59 -19 88.5 -68.5t29.5 -110.5q0 -97 -67.5 -154.5
t-193.5 -57.5h-62v126h44q123 0 123 86q0 95 -115 95q-21 0 -55 -3v121q67 10 99.5 40.5z" />
    <glyph glyph-name="agrave" unicode="&#xe0;" horiz-adv-x="594" 
d="M528 0h-141v65q-58 -73 -143.5 -73t-143.5 49.5t-58 132t60 123.5t164 41h112v3q0 86 -91 86q-39 0 -82.5 -15.5t-73.5 -38.5l-67 97q106 77 242 77q98 0 160 -49t62 -155v-343zM377 205v26h-94q-90 0 -90 -56q0 -29 21.5 -44.5t61.5 -15.5t70.5 24.5t30.5 65.5zM412 611
h-143l-139 112l154 66z" />
    <glyph glyph-name="aacute" unicode="&#xe1;" horiz-adv-x="594" 
d="M528 0h-141v65q-58 -73 -143.5 -73t-143.5 49.5t-58 132t60 123.5t164 41h112v3q0 86 -91 86q-39 0 -82.5 -15.5t-73.5 -38.5l-67 97q106 77 242 77q98 0 160 -49t62 -155v-343zM377 205v26h-94q-90 0 -90 -56q0 -29 21.5 -44.5t61.5 -15.5t70.5 24.5t30.5 65.5zM348 611
h-143l127 177l155 -65z" />
    <glyph glyph-name="acircumflex" unicode="&#xe2;" horiz-adv-x="594" 
d="M528 0h-141v65q-58 -73 -143.5 -73t-143.5 49.5t-58 132t60 123.5t164 41h112v3q0 86 -91 86q-39 0 -82.5 -15.5t-73.5 -38.5l-67 97q106 77 242 77q98 0 160 -49t62 -155v-343zM377 205v26h-94q-90 0 -90 -56q0 -29 21.5 -44.5t61.5 -15.5t70.5 24.5t30.5 65.5zM217 611
h-123l113 158h187l113 -158h-123l-84 81z" />
    <glyph glyph-name="atilde" unicode="&#xe3;" horiz-adv-x="594" 
d="M528 0h-141v65q-58 -73 -143.5 -73t-143.5 49.5t-58 132t60 123.5t164 41h112v3q0 86 -91 86q-39 0 -82.5 -15.5t-73.5 -38.5l-67 97q106 77 242 77q98 0 160 -49t62 -155v-343zM377 205v26h-94q-90 0 -90 -56q0 -29 21.5 -44.5t61.5 -15.5t70.5 24.5t30.5 65.5zM233 663
q-31 0 -30 -52h-106q0 75 32.5 118t83.5 43q32 0 77.5 -27.5t55.5 -27.5q31 0 30 52h106q0 -75 -32.5 -118t-83.5 -43q-31 0 -78 27.5t-55 27.5z" />
    <glyph glyph-name="adieresis" unicode="&#xe4;" horiz-adv-x="594" 
d="M528 0h-141v65q-58 -73 -143.5 -73t-143.5 49.5t-58 132t60 123.5t164 41h112v3q0 86 -91 86q-39 0 -82.5 -15.5t-73.5 -38.5l-67 97q106 77 242 77q98 0 160 -49t62 -155v-343zM377 205v26h-94q-90 0 -90 -56q0 -29 21.5 -44.5t61.5 -15.5t70.5 24.5t30.5 65.5zM130 691
q0 31 21.5 52.5t52.5 21.5t52.5 -21.5t21.5 -52.5t-21.5 -52.5t-52.5 -21.5t-52.5 21.5t-21.5 52.5zM323 691q0 31 21.5 52.5t52.5 21.5t52.5 -21.5t21.5 -52.5t-21.5 -52.5t-52.5 -21.5t-52.5 21.5t-21.5 52.5z" />
    <glyph glyph-name="aring" unicode="&#xe5;" horiz-adv-x="594" 
d="M528 0h-141v65q-58 -73 -143.5 -73t-143.5 49.5t-58 132t60 123.5t164 41h112v3q0 86 -91 86q-39 0 -82.5 -15.5t-73.5 -38.5l-67 97q106 77 242 77q98 0 160 -49t62 -155v-343zM377 205v26h-94q-90 0 -90 -56q0 -29 21.5 -44.5t61.5 -15.5t70.5 24.5t30.5 65.5zM199 703
q0 44 31.5 75.5t75.5 31.5t75.5 -31.5t31.5 -75.5t-31.5 -75.5t-75.5 -31.5t-75.5 31.5t-31.5 75.5zM271 703q0 -14 10.5 -24.5t24.5 -10.5t24.5 10.5t10.5 24.5t-10.5 24.5t-24.5 10.5t-24.5 -10.5t-10.5 -24.5z" />
    <glyph glyph-name="ae" unicode="&#xe6;" horiz-adv-x="936" 
d="M895 219h-369v-5q8 -45 42 -71.5t78 -26.5q71 0 132 75l88 -98q-96 -101 -228 -101q-115 0 -189 76q-77 -76 -197 -76q-88 0 -150 50t-62 129q0 163 224 163h112v7q0 84 -87 84q-62 0 -150 -62l-67 97q108 87 224.5 87t175.5 -56q70 56 173.5 56t176.5 -66.5t73 -184.5
v-77zM375 205v14h-94q-44 0 -67 -8t-23 -36.5t21.5 -44t61.5 -15.5t70.5 24.5t30.5 65.5zM708 400q-27 23 -66.5 23t-72 -24t-41.5 -65h214q-7 43 -34 66z" />
    <glyph glyph-name="ccedilla" unicode="&#xe7;" horiz-adv-x="583" 
d="M330 125q75 0 135 75l89 -100q-81 -84 -178 -103l-27 -50q65 -22 65 -76q0 -43 -35.5 -75t-89.5 -32t-105 32l38 86q22 -19 39 -19t26.5 9t9.5 22.5t-12 24t-28.5 10.5t-35.5 -9l41 78q-95 20 -158 92t-63 178q0 124 84.5 201.5t200.5 77.5q58 0 117.5 -24t104.5 -71
l-78 -102q-26 31 -63.5 48t-74.5 17q-59 0 -101.5 -38.5t-42.5 -107t42.5 -106.5t99.5 -38z" />
    <glyph glyph-name="egrave" unicode="&#xe8;" horiz-adv-x="618" 
d="M537 78q-91 -86 -213.5 -86t-202.5 75.5t-80 202.5t81.5 202t192.5 75t188.5 -67t77.5 -184v-80h-392q7 -44 46 -72t88 -28q79 0 130 53zM393 397q-31 26 -75.5 26t-81.5 -27t-43 -73h236q-5 48 -36 74zM405 611h-143l-139 112l154 66z" />
    <glyph glyph-name="eacute" unicode="&#xe9;" horiz-adv-x="618" 
d="M537 78q-91 -86 -213.5 -86t-202.5 75.5t-80 202.5t81.5 202t192.5 75t188.5 -67t77.5 -184v-80h-392q7 -44 46 -72t88 -28q79 0 130 53zM393 397q-31 26 -75.5 26t-81.5 -27t-43 -73h236q-5 48 -36 74zM361 611h-143l127 177l155 -65z" />
    <glyph glyph-name="ecircumflex" unicode="&#xea;" horiz-adv-x="618" 
d="M537 78q-91 -86 -213.5 -86t-202.5 75.5t-80 202.5t81.5 202t192.5 75t188.5 -67t77.5 -184v-80h-392q7 -44 46 -72t88 -28q79 0 130 53zM393 397q-31 26 -75.5 26t-81.5 -27t-43 -73h236q-5 48 -36 74zM225 611h-123l113 158h187l113 -158h-123l-84 81z" />
    <glyph glyph-name="edieresis" unicode="&#xeb;" horiz-adv-x="618" 
d="M537 78q-91 -86 -213.5 -86t-202.5 75.5t-80 202.5t81.5 202t192.5 75t188.5 -67t77.5 -184v-80h-392q7 -44 46 -72t88 -28q79 0 130 53zM393 397q-31 26 -75.5 26t-81.5 -27t-43 -73h236q-5 48 -36 74zM145 691q0 31 21.5 52.5t52.5 21.5t52.5 -21.5t21.5 -52.5
t-21.5 -52.5t-52.5 -21.5t-52.5 21.5t-21.5 52.5zM338 691q0 31 21.5 52.5t52.5 21.5t52.5 -21.5t21.5 -52.5t-21.5 -52.5t-52.5 -21.5t-52.5 21.5t-21.5 52.5z" />
    <glyph glyph-name="igrave" unicode="&#xec;" 
d="M71 538h150v-538h-150v538zM223 611h-143l-139 112l154 66z" />
    <glyph glyph-name="iacute" unicode="&#xed;" 
d="M71 538h150v-538h-150v538zM219 611h-143l127 177l155 -65z" />
    <glyph glyph-name="icircumflex" unicode="&#xee;" 
d="M145 682l-73 -71h-113l113 158h147l113 -158h-113zM71 538h150v-538h-150v538z" />
    <glyph glyph-name="idieresis" unicode="&#xef;" 
d="M71 538h150v-538h-150v538zM-24 691q0 31 21.5 52.5t52.5 21.5t52.5 -21.5t21.5 -52.5t-21.5 -52.5t-52.5 -21.5t-52.5 21.5t-21.5 52.5zM169 691q0 31 21.5 52.5t52.5 21.5t52.5 -21.5t21.5 -52.5t-21.5 -52.5t-52.5 -21.5t-52.5 21.5t-21.5 52.5z" />
    <glyph glyph-name="eth" unicode="&#xf0;" horiz-adv-x="597" 
d="M554 270q0 -125 -66.5 -201.5t-182 -76.5t-188.5 68.5t-73 176t72 176.5t174 69q26 0 46 -4q-20 25 -62 71l-86 -56l-81 78l88 57q-15 13 -33 28l-37 31l123 73q42 -34 69 -59l79 52l83 -78l-83 -55q158 -181 158 -350zM221 153q29 -35 77.5 -35t78 35t29.5 84t-30 84
t-78 35t-77 -35t-29 -84t29 -84z" />
    <glyph glyph-name="ntilde" unicode="&#xf1;" horiz-adv-x="639" 
d="M221 300v-300h-150v538h150v-60q68 69 153 69t142.5 -60t57.5 -160v-327h-150v304q0 124 -91 124q-45 0 -78.5 -32.5t-33.5 -95.5zM268 663q-31 0 -30 -52h-106q0 75 32.5 118t83.5 43q32 0 77.5 -27.5t55.5 -27.5q31 0 30 52h106q0 -75 -32.5 -118t-83.5 -43
q-31 0 -78 27.5t-55 27.5z" />
    <glyph glyph-name="ograve" unicode="&#xf2;" horiz-adv-x="648" 
d="M228.5 161.5q37.5 -41.5 96 -41.5t96 41.5t37.5 107.5t-37.5 108t-96 42t-96 -42t-37.5 -108t37.5 -107.5zM528 72q-81 -80 -203.5 -80t-203.5 80t-81 197t81 197.5t203.5 80.5t203.5 -80.5t81 -197.5t-81 -197zM405 611h-143l-139 112l154 66z" />
    <glyph glyph-name="oacute" unicode="&#xf3;" horiz-adv-x="648" 
d="M228.5 161.5q37.5 -41.5 96 -41.5t96 41.5t37.5 107.5t-37.5 108t-96 42t-96 -42t-37.5 -108t37.5 -107.5zM528 72q-81 -80 -203.5 -80t-203.5 80t-81 197t81 197.5t203.5 80.5t203.5 -80.5t81 -197.5t-81 -197zM381 611h-143l127 177l155 -65z" />
    <glyph glyph-name="ocircumflex" unicode="&#xf4;" horiz-adv-x="648" 
d="M228.5 161.5q37.5 -41.5 96 -41.5t96 41.5t37.5 107.5t-37.5 108t-96 42t-96 -42t-37.5 -108t37.5 -107.5zM528 72q-81 -80 -203.5 -80t-203.5 80t-81 197t81 197.5t203.5 80.5t203.5 -80.5t81 -197.5t-81 -197zM245 611h-123l113 158h187l113 -158h-123l-84 81z" />
    <glyph glyph-name="otilde" unicode="&#xf5;" horiz-adv-x="648" 
d="M228.5 161.5q37.5 -41.5 96 -41.5t96 41.5t37.5 107.5t-37.5 108t-96 42t-96 -42t-37.5 -108t37.5 -107.5zM528 72q-81 -80 -203.5 -80t-203.5 80t-81 197t81 197.5t203.5 80.5t203.5 -80.5t81 -197.5t-81 -197zM269 663q-31 0 -30 -52h-106q0 75 32.5 118t83.5 43
q32 0 77.5 -27.5t55.5 -27.5q31 0 30 52h106q0 -75 -32.5 -118t-83.5 -43q-31 0 -78 27.5t-55 27.5z" />
    <glyph glyph-name="odieresis" unicode="&#xf6;" horiz-adv-x="648" 
d="M228.5 161.5q37.5 -41.5 96 -41.5t96 41.5t37.5 107.5t-37.5 108t-96 42t-96 -42t-37.5 -108t37.5 -107.5zM528 72q-81 -80 -203.5 -80t-203.5 80t-81 197t81 197.5t203.5 80.5t203.5 -80.5t81 -197.5t-81 -197zM154 691q0 31 21.5 52.5t52.5 21.5t52.5 -21.5t21.5 -52.5
t-21.5 -52.5t-52.5 -21.5t-52.5 21.5t-21.5 52.5zM347 691q0 31 21.5 52.5t52.5 21.5t52.5 -21.5t21.5 -52.5t-21.5 -52.5t-52.5 -21.5t-52.5 21.5t-21.5 52.5z" />
    <glyph glyph-name="divide" unicode="&#xf7;" horiz-adv-x="582" 
d="M203 160q0 37 25.5 62.5t62.5 25.5t62.5 -25.5t25.5 -62.5t-25.5 -62.5t-62.5 -25.5t-62.5 25.5t-25.5 62.5zM203 539q0 37 25.5 62.5t62.5 25.5t62.5 -25.5t25.5 -62.5t-25.5 -62.5t-62.5 -25.5t-62.5 25.5t-25.5 62.5zM48 411h486v-123h-486v123z" />
    <glyph glyph-name="oslash" unicode="&#xf8;" horiz-adv-x="648" 
d="M324 -8q-22 0 -45 3l-44 -96h-141l65 142q-56 38 -87.5 98t-31.5 130q0 117 81 197.5t203 80.5q35 0 64 -7l38 85h142l-63 -138q104 -83 104 -218q0 -117 -81 -197t-204 -80zM228.5 377q-37.5 -42 -37.5 -103.5t28 -100.5l113 246h-8q-58 0 -95.5 -42zM424.5 166.5
q33.5 40.5 33.5 93.5t-17 87l-104 -226q54 5 87.5 45.5z" />
    <glyph glyph-name="ugrave" unicode="&#xf9;" horiz-adv-x="640" 
d="M418 248v290h151v-538h-151v71q-56 -79 -144.5 -79t-148.5 55.5t-60 164.5v326h151v-293q0 -124 91 -124q45 0 78 32.5t33 94.5zM403 611h-143l-139 112l154 66z" />
    <glyph glyph-name="uacute" unicode="&#xfa;" horiz-adv-x="640" 
d="M418 248v290h151v-538h-151v71q-56 -79 -144.5 -79t-148.5 55.5t-60 164.5v326h151v-293q0 -124 91 -124q45 0 78 32.5t33 94.5zM379 611h-143l127 177l155 -65z" />
    <glyph glyph-name="ucircumflex" unicode="&#xfb;" horiz-adv-x="640" 
d="M418 248v290h151v-538h-151v71q-56 -79 -144.5 -79t-148.5 55.5t-60 164.5v326h151v-293q0 -124 91 -124q45 0 78 32.5t33 94.5zM236 611h-123l113 158h187l113 -158h-123l-84 81z" />
    <glyph glyph-name="udieresis" unicode="&#xfc;" horiz-adv-x="640" 
d="M418 248v290h151v-538h-151v71q-56 -79 -144.5 -79t-148.5 55.5t-60 164.5v326h151v-293q0 -124 91 -124q45 0 78 32.5t33 94.5zM143 691q0 31 21.5 52.5t52.5 21.5t52.5 -21.5t21.5 -52.5t-21.5 -52.5t-52.5 -21.5t-52.5 21.5t-21.5 52.5zM336 691q0 31 21.5 52.5
t52.5 21.5t52.5 -21.5t21.5 -52.5t-21.5 -52.5t-52.5 -21.5t-52.5 21.5t-21.5 52.5z" />
    <glyph glyph-name="yacute" unicode="&#xfd;" horiz-adv-x="590" 
d="M164 -212q-79 0 -149 64l68 111q38 -37 78 -37q21 0 36 20.5t15 43.5t-208 548h160l131 -335l131 335h160l-250 -634q-22 -55 -68.5 -85.5t-103.5 -30.5zM350 611h-143l127 177l155 -65z" />
    <glyph glyph-name="thorn" unicode="&#xfe;" horiz-adv-x="666" 
d="M547.5 472q77.5 -75 77.5 -200t-77.5 -202.5t-180.5 -77.5q-80 0 -146 51v-237h-150v936h150v-249q60 54 144 54q105 0 182.5 -75zM255.5 161.5q36.5 -41.5 88.5 -41.5t91 41.5t39 106.5t-38 109t-91 44t-89.5 -43.5t-36.5 -109t36.5 -107z" />
    <glyph glyph-name="ydieresis" unicode="&#xff;" horiz-adv-x="590" 
d="M164 -212q-79 0 -149 64l68 111q38 -37 78 -37q21 0 36 20.5t15 43.5t-208 548h160l131 -335l131 335h160l-250 -634q-22 -55 -68.5 -85.5t-103.5 -30.5zM124 691q0 31 21.5 52.5t52.5 21.5t52.5 -21.5t21.5 -52.5t-21.5 -52.5t-52.5 -21.5t-52.5 21.5t-21.5 52.5z
M317 691q0 31 21.5 52.5t52.5 21.5t52.5 -21.5t21.5 -52.5t-21.5 -52.5t-52.5 -21.5t-52.5 21.5t-21.5 52.5z" />
    <glyph glyph-name="hbar" unicode="&#x127;" horiz-adv-x="639" 
d="M221 290v-290h-150v574h-47v87h47v81h150v-81h110v-87h-110v-96q68 69 152.5 69t142.5 -60t58 -160v-327h-150v294q0 124 -91 124q-45 0 -78.5 -32.5t-33.5 -95.5z" />
    <glyph glyph-name="Itilde" unicode="&#x128;" horiz-adv-x="328" 
d="M86 699h156v-699h-156v699zM106 821q-31 0 -30 -52h-106q0 75 32.5 118t83.5 43q32 0 77.5 -27.5t55.5 -27.5q31 0 30 52h106q0 -75 -32.5 -118t-83.5 -43q-31 0 -78 27.5t-55 27.5z" />
    <glyph glyph-name="itilde" unicode="&#x129;" 
d="M71 538h150v-538h-150v538zM89 663q-31 0 -30 -52h-106q0 75 32.5 118t83.5 43q32 0 77.5 -27.5t55.5 -27.5q31 0 30 52h106q0 -75 -32.5 -118t-83.5 -43q-31 0 -78 27.5t-55 27.5z" />
    <glyph glyph-name="dotlessi" unicode="&#x131;" 
d="M71 538h150v-538h-150v538z" />
    <glyph glyph-name="ij" unicode="&#x133;" horiz-adv-x="599" 
d="M221 0h-150v538h150v-538zM378 -8v546h150v-550q0 -88 -53.5 -139t-131 -51t-147.5 64l70 115q48 -47 70 -47q42 0 42 62zM59 668q0 37 25.5 62.5t62.5 25.5t62.5 -25.5t25.5 -62.5t-25.5 -62.5t-62.5 -25.5t-62.5 25.5t-25.5 62.5zM364 668q0 37 25.5 62.5t62.5 25.5
t62.5 -25.5t25.5 -62.5t-25.5 -62.5t-62.5 -25.5t-62.5 25.5t-25.5 62.5z" />
    <glyph glyph-name="Jcircumflex" unicode="&#x134;" horiz-adv-x="556" 
d="M112 565v134h364v-456q0 -125 -64.5 -187t-165.5 -62q-126 0 -220 97l81 112q63 -68 132 -68q33 0 56.5 25.5t23.5 76.5v328h-207zM214 769h-123l113 158h187l113 -158h-123l-84 81z" />
    <glyph glyph-name="jcircumflex" unicode="&#x135;" 
d="M71 -10v548h150v-560q0 -88 -53.5 -139t-131 -51t-147.5 64l69 111q30 -35 67 -35q20 0 33 15.5t13 46.5zM62 611h-123l113 158h187l113 -158h-123l-84 81z" />
    <glyph glyph-name="kcedilla" unicode="&#x137;" horiz-adv-x="595" 
d="M221 0h-150v742h150v-381l167 178h189l-205 -218l213 -321h-178l-137 206l-49 -51v-155zM411 -127q0 -43 -35.5 -75t-89.5 -32t-105 32l38 86q22 -19 39 -19t26.5 9t9.5 22.5t-12 24t-28 10.5t-36 -9l41 78h115l-28 -51q65 -22 65 -76z" />
    <glyph glyph-name="kgreenlandic" unicode="&#x138;" horiz-adv-x="595" 
d="M221 0h-150v538h150v-177l167 177h189l-205 -217l213 -321h-178l-137 206l-49 -51v-155z" />
    <glyph glyph-name="ldot" unicode="&#x140;" horiz-adv-x="398" 
d="M221 0h-150v742h150v-742zM257 320q0 37 25.5 62.5t62.5 25.5t62.5 -25.5t25.5 -62.5t-25.5 -62.5t-62.5 -25.5t-62.5 25.5t-25.5 62.5z" />
    <glyph glyph-name="Lslash" unicode="&#x141;" horiz-adv-x="584" 
d="M102 698h156v-312l205 65v-136l-205 -65v-111h298v-139h-454v201l-74 -23v135l74 24v361z" />
    <glyph glyph-name="lslash" unicode="&#x142;" horiz-adv-x="363" 
d="M113 698h151v-300l70 21v-136l-70 -20v-263h-151v220l-77 -23v136l77 22v343z" />
    <glyph glyph-name="Nacute" unicode="&#x143;" horiz-adv-x="817" 
d="M575 699h156v-699h-156l-333 438v-438h-156v699h146l343 -450v450zM471 771h-143l127 177l155 -65z" />
    <glyph glyph-name="nacute" unicode="&#x144;" horiz-adv-x="639" 
d="M221 300v-300h-150v538h150v-60q68 69 153 69t142.5 -60t57.5 -160v-327h-150v304q0 124 -91 124q-45 0 -78.5 -32.5t-33.5 -95.5zM379 611h-143l127 177l155 -65z" />
    <glyph glyph-name="OE" unicode="&#x152;" horiz-adv-x="1042" 
d="M978 698v-138h-348v-144h312v-133h-312v-145h359v-138h-586q-151 0 -253.5 100t-102.5 249t102.5 249t253.5 100h575zM271 503.5q-58 -63.5 -58 -154t58 -154.5t142 -64h60v436h-60q-84 0 -142 -63.5z" />
    <glyph glyph-name="oe" unicode="&#x153;" horiz-adv-x="1035" 
d="M954 78q-91 -86 -218.5 -86t-205.5 83q-81 -83 -204.5 -83t-204.5 80t-81 197t81 197.5t204.5 80.5t205.5 -84q79 84 195.5 84t194 -67t77.5 -184v-80h-392q7 -44 46 -72t88 -28q79 0 130 53zM458 262v7q0 66 -37.5 108t-96 42t-96 -42t-37.5 -108t37.5 -107.5t95 -41.5
t95 39.5t39.5 102.5zM810 397q-31 26 -75.5 26t-81.5 -27t-43 -73h236q-5 48 -36 74z" />
    <glyph glyph-name="Racute" unicode="&#x154;" horiz-adv-x="727" 
d="M653 467q0 -168 -133 -217l177 -250h-192l-155 223h-108v-223h-156v699h265q163 0 232.5 -55t69.5 -177zM465 384q29 26 29 82.5t-30 77.5t-105 21h-117v-207h114q80 0 109 26zM347 771h-143l127 177l155 -65z" />
    <glyph glyph-name="Rcommaaccent" unicode="&#x156;" horiz-adv-x="727" 
d="M246 -250l65 195h141l-80 -195h-126zM653 467q0 -168 -133 -217l177 -250h-192l-155 223h-108v-223h-156v699h265q163 0 232.5 -55t69.5 -177zM465 384q29 26 29 82.5t-30 77.5t-105 21h-117v-207h114q80 0 109 26z" />
    <glyph glyph-name="rcommaaccent" unicode="&#x157;" horiz-adv-x="411" 
d="M16 -250l65 195h141l-80 -195h-126zM354 406q-67 0 -100 -47.5t-33 -125.5v-233h-150v539h150v-72q30 33 73 56.5t88 24.5l1 -142h-29z" />
    <glyph glyph-name="Rcaron" unicode="&#x158;" horiz-adv-x="727" 
d="M653 467q0 -168 -133 -217l177 -250h-192l-155 223h-108v-223h-156v699h265q163 0 232.5 -55t69.5 -177zM465 384q29 26 29 82.5t-30 77.5t-105 21h-117v-207h114q80 0 109 26zM130 927h123l83 -81l84 81h123l-113 -158h-187z" />
    <glyph glyph-name="rcaron" unicode="&#x159;" horiz-adv-x="411" 
d="M354 406q-67 0 -100 -47.5t-33 -125.5v-233h-150v538h150v-71q29 33 72.5 56t88.5 24l1 -141h-29zM7 769h123l83 -81l84 81h123l-113 -158h-187z" />
    <glyph glyph-name="Scaron" unicode="&#x160;" horiz-adv-x="638" 
d="M249.5 559.5q-22.5 -18.5 -22.5 -49t27.5 -48.5t127 -42.5t154.5 -73.5t55 -143t-70.5 -152.5t-185.5 -58.5q-166 0 -299 123l93 114q113 -99 209 -99q43 0 67.5 18.5t24.5 50t-26 50t-103 37.5q-122 29 -178.5 75.5t-56.5 146t71.5 153.5t178.5 54q70 0 140 -24t122 -68
l-79 -114q-91 69 -188 69q-39 0 -61.5 -18.5zM101 927h123l83 -81l84 81h123l-113 -158h-187z" />
    <glyph glyph-name="scaron" unicode="&#x161;" horiz-adv-x="520" 
d="M417.5 40q-58.5 -48 -148.5 -48q-60 0 -125 21.5t-117 63.5l66 94q84 -65 179 -65q29 0 46 11.5t17 30.5t-23.5 35t-68 30t-68 24t-53.5 29q-61 38 -61 112.5t60 121.5t155 47t190 -64l-56 -100q-70 48 -139.5 48t-69.5 -38q0 -21 22 -33t73 -28t72.5 -24.5t51.5 -26.5
q56 -34 56 -113.5t-58.5 -127.5zM58 769h123l83 -81l84 81h123l-113 -158h-187z" />
    <glyph glyph-name="Zcaron" unicode="&#x17d;" horiz-adv-x="681" 
d="M46 0v107l366 457h-354v135h567v-108l-365 -455h371v-136h-585zM127 927h123l83 -81l84 81h123l-113 -158h-187z" />
    <glyph glyph-name="zcaron" unicode="&#x17e;" horiz-adv-x="553" 
d="M61 414v124h434v-117l-261 -296h276v-125h-468v124l254 290h-235zM73 769h123l83 -81l84 81h123l-113 -158h-187z" />
    <glyph glyph-name="florin" unicode="&#x192;" horiz-adv-x="707" 
d="M393 708q59 49 142.5 49t141.5 -62l-72 -111q-22 35 -66 35q-23 0 -41 -17t-24 -49l-18 -129h133l-13 -108h-135l-44 -319q-13 -90 -67 -144.5t-143.5 -54.5t-159.5 64l66 109q43 -41 88 -41q54 0 63 68l43 318h-63l13 108h65l20 144q12 91 71 140z" />
    <glyph glyph-name="circumflex" unicode="&#x2c6;" horiz-adv-x="483" 
d="M158 771h-123l113 158h187l113 -158h-123l-84 81z" />
    <glyph glyph-name="caron" unicode="&#x2c7;" horiz-adv-x="613" 
d="M100 918h123l83 -81l84 81h123l-113 -158h-187z" />
    <glyph glyph-name="breve" unicode="&#x2d8;" horiz-adv-x="568" 
d="M284 666q45 0 63 60h121q-7 -82 -57 -128t-127 -46t-127 46t-57 128h121q18 -60 63 -60z" />
    <glyph glyph-name="dotaccent" unicode="&#x2d9;" horiz-adv-x="311" 
d="M55 682q0 42 29.5 71.5t71.5 29.5t71.5 -29.5t29.5 -71.5t-29.5 -71.5t-71.5 -29.5t-71.5 29.5t-29.5 71.5z" />
    <glyph glyph-name="ring" unicode="&#x2da;" horiz-adv-x="414" 
d="M100 703q0 44 31.5 75.5t75.5 31.5t75.5 -31.5t31.5 -75.5t-31.5 -75.5t-75.5 -31.5t-75.5 31.5t-31.5 75.5zM172 703q0 -14 10.5 -24.5t24.5 -10.5t24.5 10.5t10.5 24.5t-10.5 24.5t-24.5 10.5t-24.5 -10.5t-10.5 -24.5z" />
    <glyph glyph-name="ogonek" unicode="&#x2db;" horiz-adv-x="215" 
d="M125 -129q22 0 41 29l51 -33q-29 -47 -53.5 -63t-61 -16t-60.5 25t-24 56t13 60t27 46l13 17h73q-46 -60 -46 -96q0 -25 27 -25z" />
    <glyph glyph-name="tilde" unicode="&#x2dc;" horiz-adv-x="585" 
d="M243 663q-31 0 -30 -52h-106q0 75 32.5 118t83.5 43q32 0 77.5 -27.5t55.5 -27.5q31 0 30 52h106q0 -75 -32.5 -118t-83.5 -43q-31 0 -78 27.5t-55 27.5z" />
    <glyph glyph-name="hungarumlaut" unicode="&#x2dd;" horiz-adv-x="506" 
d="M149 611h-133l127 177l145 -65zM371 611h-143l137 177l145 -65z" />
    <glyph glyph-name="pi" unicode="&#x3c0;" horiz-adv-x="744" 
d="M155 365q0 -17 13 -43l-124 -35q-21 42 -21 86q0 69 53.5 117t139.5 48h496v-131h-96v-407h-150v407h-104q-4 -96 -24.5 -217t-46.5 -190h-142q28 83 48 199.5t22 207.5q-64 0 -64 -42z" />
    <glyph glyph-name="endash" unicode="&#x2013;" horiz-adv-x="543" 
d="M74 215v97h395v-97h-395z" />
    <glyph glyph-name="emdash" unicode="&#x2014;" horiz-adv-x="697" 
d="M64 216v96h569v-96h-569z" />
    <glyph glyph-name="quoteleft" unicode="&#x2018;" horiz-adv-x="240" 
d="M168 596q33 -22 33 -61.5t-23.5 -62.5t-59 -23t-59 22t-23.5 57t22 69l73 106h82z" />
    <glyph glyph-name="quoteright" unicode="&#x2019;" horiz-adv-x="240" 
d="M72 553q-33 22 -33 61.5t23.5 62.5t59 23t59 -22t23.5 -57t-22 -69l-73 -106h-82z" />
    <glyph glyph-name="quotesinglbase" unicode="&#x201a;" horiz-adv-x="240" 
d="M72 11q-33 22 -33 61.5t23.5 62.5t59 23t59 -22t23.5 -57t-22 -69l-73 -106h-82z" />
    <glyph glyph-name="quotedblleft" unicode="&#x201c;" horiz-adv-x="425" 
d="M168 596q33 -22 33 -61.5t-23.5 -62.5t-59 -23t-59 22t-23.5 57t22 69l73 106h82zM353 596q33 -22 33 -61.5t-23.5 -62.5t-59 -23t-59 22t-23.5 57t22 69l73 106h82z" />
    <glyph glyph-name="quotedblright" unicode="&#x201d;" horiz-adv-x="425" 
d="M72 553q-33 22 -33 61.5t23.5 62.5t59 23t59 -22t23.5 -57t-22 -69l-73 -106h-82zM257 553q-33 22 -33 61.5t23.5 62.5t59 23t59 -22t23.5 -57t-22 -69l-73 -106h-82z" />
    <glyph glyph-name="quotedblbase" unicode="&#x201e;" horiz-adv-x="425" 
d="M72 11q-33 22 -33 61.5t23.5 62.5t59 23t59 -22t23.5 -57t-22 -69l-73 -106h-82zM257 11q-33 22 -33 61.5t23.5 62.5t59 23t59 -22t23.5 -57t-22 -69l-73 -106h-82z" />
    <glyph glyph-name="dagger" unicode="&#x2020;" horiz-adv-x="538" 
d="M193 -185v558h-158v130h158v196h145v-196h165v-130h-165v-558h-145z" />
    <glyph glyph-name="daggerdbl" unicode="&#x2021;" horiz-adv-x="534" 
d="M339 373v-191h99v-111h-99v-256h-146v256h-102v111h102v191h-155v130h155v196h146v-196h158v-130h-158z" />
    <glyph glyph-name="bullet" unicode="&#x2022;" horiz-adv-x="438" 
d="M80 317q0 58 40.5 98.5t98.5 40.5t98.5 -40.5t40.5 -98.5t-40.5 -98.5t-98.5 -40.5t-98.5 40.5t-40.5 98.5z" />
    <glyph glyph-name="ellipsis" unicode="&#x2026;" horiz-adv-x="701" 
d="M468 79q0 37 25.5 62.5t62.5 25.5t62.5 -25.5t25.5 -62.5t-25.5 -62.5t-62.5 -25.5t-62.5 25.5t-25.5 62.5zM262 79q0 37 25.5 62.5t62.5 25.5t62.5 -25.5t25.5 -62.5t-25.5 -62.5t-62.5 -25.5t-62.5 25.5t-25.5 62.5zM57 79q0 37 25.5 62.5t62.5 25.5t62.5 -25.5
t25.5 -62.5t-25.5 -62.5t-62.5 -25.5t-62.5 25.5t-25.5 62.5z" />
    <glyph glyph-name="perthousand" unicode="&#x2030;" horiz-adv-x="1117" 
d="M724 699l-501 -699h-172l502 699h171zM586 83q18 0 30 13.5t12 35.5t-12 36.5t-29.5 14.5t-29.5 -14.5t-12 -36.5t11.5 -35.5t29.5 -13.5zM692 32.5q-42 -40.5 -105.5 -40.5t-105.5 41t-42 99.5t42 99.5t105.5 41t105.5 -41t42 -100t-42 -99.5zM192 492q18 0 30 13.5
t12 35.5t-12 36.5t-29.5 14.5t-29.5 -14.5t-12 -36.5t11.5 -35.5t29.5 -13.5zM298 441.5q-42 -40.5 -105.5 -40.5t-105.5 41t-42 99.5t42 99.5t105.5 41t105.5 -41t42 -100t-42 -99.5zM935 83q18 0 30 13.5t12 35.5t-12 36.5t-29.5 14.5t-29.5 -14.5t-12 -36.5t11.5 -35.5
t29.5 -13.5zM1041 32.5q-42 -40.5 -105.5 -40.5t-105.5 41t-42 99.5t42 99.5t105.5 41t105.5 -41t42 -100t-42 -99.5z" />
    <glyph glyph-name="guilsinglleft" unicode="&#x2039;" horiz-adv-x="379" 
d="M321 429l-118 -184l118 -185h-151l-122 185l122 184h151z" />
    <glyph glyph-name="guilsinglright" unicode="&#x203a;" horiz-adv-x="379" 
d="M176 245l-118 184h151l122 -184l-122 -185h-151z" />
    <glyph glyph-name="fraction" unicode="&#x2044;" horiz-adv-x="662" 
d="M668 698l-502 -698h-171l501 698h172z" />
    <glyph glyph-name="Euro" unicode="&#x20ac;" horiz-adv-x="766" 
d="M46 380v84h97q30 114 114.5 182.5t205.5 68.5q150 0 257 -121l-89 -116q-73 89 -172 89q-112 0 -155 -103h233v-84h-251q-1 -10 -1 -30t1 -29h251v-84h-228q24 -47 65.5 -72t91.5 -25q99 0 162 79l92 -102q-54 -63 -124.5 -94t-140.5 -31q-113 0 -197 66.5t-115 178.5
h-97v84h84q-1 9 -1 29t1 30h-84z" />
    <glyph glyph-name="trademark" unicode="&#x2122;" horiz-adv-x="990" 
d="M289 596v-319h-110v319h-116v103h342v-103h-116zM541 277h-110v422h140l99 -210l99 210h139v-422h-110v224l-94 -191h-69l-94 191v-224z" />
    <glyph glyph-name="Omega" unicode="&#x2126;" horiz-adv-x="900" 
d="M450 715q162 0 263.5 -100t101.5 -239t-116 -238h147v-138h-358v132q81 26 131 97t50 153t-58.5 139.5t-160.5 57.5t-160.5 -57.5t-58.5 -139.5t50 -153t131 -97v-132h-358v138h147q-116 99 -116 238t101.5 239t263.5 100z" />
    <glyph glyph-name="partialdiff" unicode="&#x2202;" horiz-adv-x="609" 
d="M275 716q118 0 198 -91.5t80 -265.5q0 -154 -58 -255q-30 -53 -84 -82.5t-127 -29.5q-103 0 -171.5 71t-68.5 173t67 155.5t157 53.5t145 -48q0 98 -45 145t-102.5 47t-111.5 -36l-71 98q90 65 192 65zM279 315q-38 0 -63.5 -23t-25.5 -66t25.5 -69t71.5 -26t77.5 34
t33.5 95q-50 55 -119 55z" />
    <glyph glyph-name="Delta" unicode="&#x2206;" horiz-adv-x="803" 
d="M472 698l301 -698h-743l301 698h141zM255 136h292l-146 335z" />
    <glyph glyph-name="product" unicode="&#x220f;" horiz-adv-x="788" 
d="M705 -212h-162v860h-298v-860h-162v1000h622v-1000z" />
    <glyph glyph-name="summation" unicode="&#x2211;" horiz-adv-x="710" 
d="M669 -195h-631v104l281 387l-268 382v105h599v-140h-382l238 -346l-256 -352h419v-140z" />
    <glyph glyph-name="minus" unicode="&#x2212;" horiz-adv-x="582" 
d="M48 411h486v-123h-486v123z" />
    <glyph glyph-name="radical" unicode="&#x221a;" horiz-adv-x="722" 
d="M24 296v127h213l111 -356l219 690h153l-293 -913h-160l-144 452h-99z" />
    <glyph glyph-name="infinity" unicode="&#x221e;" horiz-adv-x="857" 
d="M245 453q97 0 183 -99q86 99 183 99q82 0 130.5 -53.5t48.5 -134.5t-50 -134t-133 -53q-56 0 -96 23.5t-83 69.5q-43 -46 -83 -69.5t-96 -23.5q-83 0 -133 53t-50 134t49 134.5t130 53.5zM248 199q39 0 99 64q-66 71 -102 71q-21 0 -34.5 -19t-13.5 -47.5t14 -48.5
t37 -20zM611 334q-35 0 -101 -71q58 -64 98 -64q23 0 37 20t14 48.5t-13 47.5t-35 19z" />
    <glyph glyph-name="integral" unicode="&#x222b;" horiz-adv-x="436" 
d="M355 730q-38 0 -53.5 -32t-15.5 -99.5t7 -225t7 -264.5q0 -271 -185 -271q-24 0 -56.5 8t-48.5 17l21 119q34 -17 60 -17q39 0 56 39t17 122.5t-7.5 224.5t-7.5 221t8 125.5t27 83.5q41 78 148 78q53 0 91 -21l-17 -118q-31 10 -51 10z" />
    <glyph glyph-name="approxequal" unicode="&#x2248;" horiz-adv-x="672" 
d="M262 263q-41 0 -40 -69h-141q0 99 43.5 156.5t111.5 57.5q44 0 102.5 -36.5t73.5 -36.5q40 0 40 63v6h141q0 -100 -43 -157t-111 -57q-33 0 -56 11t-37 19.5t-28.5 17t-21.5 12.5q-21 13 -34 13zM262 504q-41 0 -40 -69h-141q0 99 43.5 156.5t111.5 57.5
q44 0 102.5 -36.5t73.5 -36.5q40 0 40 63v6h141q0 -100 -43 -157t-111 -57q-33 0 -56 11t-37 19.5t-28.5 17t-21.5 13.5q-21 12 -34 12z" />
    <glyph glyph-name="notequal" unicode="&#x2260;" horiz-adv-x="645" 
d="M63 426v121h262l70 152h142l-70 -152h113v-121h-168l-42 -91h210v-121h-265l-70 -153h-141l70 153h-111v121h166l41 91h-207z" />
    <glyph glyph-name="lessequal" unicode="&#x2264;" horiz-adv-x="621" 
d="M62 326v137l486 229v-147l-321 -148l321 -152v-148zM62 -70v121h487v-121h-487z" />
    <glyph glyph-name="greaterequal" unicode="&#x2265;" horiz-adv-x="621" 
d="M559 463v-137l-486 -229v148l321 152l-321 148v147zM559 51v-121h-487v121h487z" />
    <glyph glyph-name="lozenge" unicode="&#x25ca;" horiz-adv-x="636" 
d="M84 33v435h468v-435h-468z" />
    <glyph glyph-name="fi" unicode="&#xfb01;" horiz-adv-x="694" 
d="M250 569v-36h130v-108h-130v-425h-151v425h-63v108h63v33q0 88 53.5 139.5t133 51.5t144.5 -60l-54 -101q-33 38 -73 38q-23 0 -38 -16.5t-15 -48.5zM623 0h-150v538h150v-538zM460 669q0 37 25.5 62.5t62.5 25.5t62.5 -25.5t25.5 -62.5t-25.5 -62.5t-62.5 -25.5
t-62.5 25.5t-25.5 62.5z" />
    <glyph glyph-name="fl" unicode="&#xfb02;" horiz-adv-x="694" 
d="M250 569v-36h130v-108h-130v-425h-151v425h-63v108h63v33q0 88 53.5 139.5t133 51.5t144.5 -60l-54 -101q-33 38 -73 38q-23 0 -38 -16.5t-15 -48.5zM623 0h-150v742h150v-742z" />
    </font>
</defs>
</svg>
